.
Авторизация | Регистрация
» » Обвальщики / Мясники / Butcher Boys (2012) BDRip-AVC | L2 скачать через торрент бесплатно




    Обвальщики / Мясники / Butcher Boys (2012) BDRip-AVC | L2 скачать через торрент бесплатно

    Опубликовал: Админ | Дата: 27-02-2015, 11:10 | Просмотров: 204



    Детально о кино
    Русское название: Обвальщики / Мясники
    Русское название в мировом прокате: Butcher Boys
    Создали в: 2012
    Категория жанра: ужасы, боевик, триллер, комедия
    Главный режиссер: Дуан Грейвз, Джастин Микс
    Актеры: Али Фолкнер, Эдвин Нил, Мэрилин Бёрнс, Дерек Ли Никсон, Джонни Уолтер, Джон Дуган, Сонни Карл Дэвис, Грег Келли, Джастин Микс, Тери МакМинн

    Сюжет фильма: Вы - то, что они едят
    Сюжет вращается вокруг семейки уродов попробовавших человечины и впавших от нее в зависимость. Все бы ничего, но чрезмерное злоупотребление человеческим мясом имеет побочный эффект — оно постепенно превращает их в монстров, в прямом и переносном смысле слова.




    Снималось в: США
    Киностудия: Greeks Productions, Kitchen Sink Productions
    Время просмотра: 01:27:33
    Перевод текста: Любительское (двухголосый) DeadSno den904

    Файл
    Кодек для видео: h.264 (MKV)
    Качество фильма: BDRip-AVC
    Информация о видео: AVC, 1024 x 576, ~1944 kbps
    Информация о звуке: Русский: AC-3, 2 ch, 448 kbps / Немецкий: AC-3, 6 ch, 448 kbps
    Субтитры: Английский

    Семпл

    Скриншоты для ознакомления
    MI
    Общее
    Уникальный идентификатор : 168348648403719580577546155723716462494 (0x7EA6C532C2870C1E037BA147C20E879E)
    Полное имя : F:Мясники Обвальщики Butcher Boys (2012)Butcher.Boys.2012.BDRip-AVC.mkv
    Формат : Matroska
    Версия формата : Version 2
    Размер файла : 1,77 Гбайт
    Продолжительность : 1 ч. 27 м.
    Режим общего битрейта : Переменный
    Общий поток : 2898 Кбит/сек
    Программа кодирования : Lavf51.12.1
    Библиотека кодирования : Lavf51.12.1

    Видео
    Идентификатор : 1
    Формат : AVC
    Формат/Информация : Advanced Video Codec
    Профиль формата : Baseline@L3.1
    Параметр CABAC формата : Нет
    Параметр ReFrames формата : 1 кадр
    Параметр GOP формата : M=1, N=12
    Идентификатор кодека : V_MPEG4/ISO/AVC
    Продолжительность : 1 ч. 27 м.
    Вид битрейта : Переменный
    Битрейт : 1944 Кбит/сек
    Максимальный битрейт : 3000 Кбит/сек
    Ширина : 1024 пикселя
    Высота : 576 пикселей
    Соотношение сторон : 16:9
    Режим частоты кадров : Постоянный
    Частота кадров : 23,976 кадра/сек
    Частота кадров в оригинале : 24,000 кадра/сек
    Цветовое пространство : YUV
    Субдискретизация насыщенности : 4:2:0
    Битовая глубина : 8 бит
    Тип развёртки : Прогрессивная
    Бит/(Пиксели*Кадры) : 0.137
    Размер потока : 1,19 Гбайт (67%)
    Язык : German
    Default : Да
    Forced : Нет

    Аудио #1
    Идентификатор : 2
    Формат : AC-3
    Формат/Информация : Audio Coding 3
    Расширение режима : CM (complete main)
    Параметр Endianness формата : Big
    Идентификатор кодека : A_AC3
    Продолжительность : 1 ч. 27 м.
    Вид битрейта : Постоянный
    Битрейт : 448 Кбит/сек
    Каналы : 2 канала
    Расположение каналов : Front: L R
    Частота : 48,0 КГц
    Битовая глубина : 16 бит
    Метод сжатия : С потерями
    Размер потока : 281 Мбайт (15%)
    Язык : Russian
    Default : Да
    Forced : Нет

    Аудио #2
    Идентификатор : 4
    Формат : AC-3
    Формат/Информация : Audio Coding 3
    Расширение режима : CM (complete main)
    Параметр Endianness формата : Big
    Идентификатор кодека : A_AC3
    Продолжительность : 1 ч. 27 м.
    Вид битрейта : Постоянный
    Битрейт : 448 Кбит/сек
    Каналы : 6 каналов
    Расположение каналов : Front: L C R, Side: L R, LFE
    Частота : 48,0 КГц
    Битовая глубина : 16 бит
    Метод сжатия : С потерями
    Размер потока : 281 Мбайт (15%)
    Язык : German
    Default : Да
    Forced : Нет

    Текст
    Идентификатор : 3
    Формат : UTF-8
    Идентификатор кодека : S_TEXT/UTF8
    Идентификатор кодека/Информация : UTF-8 Plain Text
    Язык : English
    Default : Да
    Forced : Нет

    Размер скачиваемого торрента: 1.77 GB (1903131568 Bytes)

    Обвальщики / Мясники / Butcher Boys (2012) BDRip-AVC | L2 скачать через торрент бесплатно
    загрузка...
    Рейтинг →
     (голосов: 1, оценка 3/5, голосовать можно 1 раз )

    Другие торренты по теме:



      Комментарии (0):

      Информация

      Информация

        Посетители, находящиеся в группе Гости, не могут оставлять комментарии в данной новости.

        ↓ Меню



        ↓ Опрос

        А Вы добавили сайт в закладки?
        Да
        Не


        Top 10 за неделю (Фильмы)