.
Авторизация | Регистрация
Хочешь лучшие торренты? Добавь свой email!
Добавить
» » Сочувствие господину Месть / Boksuneun naui geota (2002) BDRip-AVC | iPad | P скачать через торрент бесплатно




    Сочувствие господину Месть / Boksuneun naui geota (2002) BDRip-AVC | iPad | P скачать через торрент бесплатно

    Опубликовал: Админ | Дата: 27-02-2015, 11:10 | Просмотров: 177



    Сочувствие господину Месть / Boksuneun naui geota (2002) BDRip-AVC | iPad | P
    Поэма о мести

    Русское название: Сочувствие господину Месть
    Русское название в мировом прокате: Boksuneun naui geot
    Создали в: 2002
    Категория жанра: драма, криминал
    Главный режиссер: Пак Чхан Ук
    Актеры: Сон Кан Хо, Син Ха Гюн, Пэ Ду На, Чжи-ын Лим, Хан Бо Бэ, Ким Се Дон, Ли Дэ Ён, Масаси Фудзимото, Чу-бон Джи, Чжон Гю Сю

    Сюжет фильма:
    История глухонемого Рю и его сестры, которой нужно пересадить почку. Начальник Рю, Пак, только что уволил его, и Рю со своей подружкой решают похитить дочь Пака, чтобы на полученный выкуп сделать трансплантацию. Но все идет катастрофически не так, и ситуация очень скоро перерастает в лавину насилия и мести...



    Снималось в: Корея Южная
    Киностудия: CJ Entertainment, Studio Box

    Время просмотра: 02:01:02
    Перевод текста: Русский профессиональный многоголосый закадровый

    Файл
    Кодек для видео: H.264
    Качество фильма: BDRip 576p
    Информация о видео: 1024x444 (2.35:1) at 23.976 fps, AVC at 3500 kbps
    Информация о звуке:
    1: АAС 2.0 144 kbps - Русский профессиональный многоголосый закадровый
    Субтитры: отсутствуют

    MI

    General
    Complete name : C:CREATE264mod1outBoksuneun.naui.geot.2002.576p.P.m4v
    Format : MPEG-4
    Codec ID : M4V
    File size : 3.14 GiB
    Duration : 2h 1mn
    Overall bit rate mode : Variable
    Overall bit rate : 3 709 Kbps
    Movie name : Сочувствие Господину Месть
    Performer : Chan-wook Park
    Genre : Crime
    ContentType : Short Film
    Deion : История глухонемого Рю и его сестры, которой нужно пересадить почку. Начальник Рю, Пак, только что уволил его, и Рю со своей подружкой решают похитить дочь Пака, чтобы на полученный выкуп сделать трансплантацию. Но все идет катастрофически не так...
    Recorded date : UTC 2002-03-29 08:00:00
    Encoded date : UTC 2014-05-09 17:05:03
    Tagged date : UTC 2014-05-09 17:08:17
    Copyright : CJ Entertainment, Studio Box
    Cover : Yes
    Comment : Поэма о мести
    ContentRating : mpaa|R|400|

    Title/Sort : Boksuneun naui geot
    LongDeion : История глухонемого Рю и его сестры, которой нужно пересадить почку. Начальник Рю, Пак, только что уволил его, и Рю со своей подружкой решают похитить дочь Пака, чтобы на полученный выкуп сделать трансплантацию. Но все идет катастрофически не так, и ситуация очень скоро перерастает в лавину насилия и мести…
    AppleStoreCatalogID : 75872
    Vendor : Apple:vendor_id:2002-75872

    Video
    ID : 1
    Format : AVC
    Format/Info : Advanced Video Codec
    Format profile : High@L4.1
    Format settings, CABAC : Yes
    Format settings, ReFrames : 12 frames
    Codec ID : avc1
    Codec ID/Info : Advanced Video Coding
    Duration : 2h 1mn
    Bit rate : 3 555 Kbps
    Maximum bit rate : 14.4 Mbps
    Width : 1 024 pixels
    Height : 444 pixels
    Display aspect ratio : 2.35:1
    Frame rate mode : Constant
    Frame rate : 23.976 fps
    Color space : YUV
    Chroma subsampling : 4:2:0
    Bit depth : 8 bits
    Scan type : Progressive
    Bits/(Pixel*Frame) : 0.326
    Stream size : 3.01 GiB (96%)
    Title : Boksuneun.naui.geot.2002
    Language : English
    Encoded date : UTC 2014-05-09 17:05:03
    Tagged date : UTC 2014-05-09 17:05:16

    Audio
    ID : 2
    Format : AAC
    Format/Info : Advanced Audio Codec
    Format profile : LC
    Codec ID : 40
    Duration : 2h 1mn
    Bit rate mode : Variable
    Bit rate : 144 Kbps
    Maximum bit rate : 177 Kbps
    Channel(s) : 2 channels
    Channel positions : Front: L R
    Sampling rate : 48.0 KHz
    Compression mode : Lossy
    Stream size : 126 MiB (4%)
    Title : MVO
    Language : Russian
    Encoded date : UTC 2014-05-09 17:02:54
    Tagged date : UTC 2014-05-09 17:05:16

    Menu
    ID : 3
    Codec ID : text
    Duration : 2h 1mn
    Encoded date : UTC 2014-05-09 17:05:50
    Tagged date : UTC 2014-05-09 17:05:50
    Bit rate mode : CBR

    x264

    x264 info: frame I:950 Avg QP:16.72 size:113826
    x264 info: frame P:36556 Avg QP:19.30 size: 40904
    x264 info: frame B:136615 Avg QP:20.58 size: 11884
    x264 info: consecutive B-frames: 2.0% 1.6% 5.4% 18.0% 22.3% 39.7% 5.0% 2.6% 1.3% 0.5% 0.3% 0.4% 0.5% 0.4% 0.4%
    x264 info: mb I I16..4: 19.8% 39.8% 40.4%
    x264 info: mb P I16..4: 1.7% 5.4% 2.9% P16..4: 24.1% 29.9% 21.2% 7.0% 2.3% skip: 5.5%
    x264 info: mb B I16..4: 0.1% 0.8% 0.4% B16..8: 23.8% 15.5% 3.6% direct:11.8% skip:44.0% L0:34.0% L1:39.5% BI:26.4%
    x264 info: 8x8 transform intra:53.8% inter:25.3%
    x264 info: coded y,uvDC,uvAC intra: 96.4% 74.9% 51.5% inter: 30.0% 12.7% 4.7%
    x264 info: i16 v,h,dc,p: 6% 4% 31% 59%
    x264 info: i8 v,h,dc,ddl,ddr,vr,hd,vl,hu: 10% 15% 12% 8% 10% 10% 11% 10% 13%
    x264 info: i4 v,h,dc,ddl,ddr,vr,hd,vl,hu: 11% 13% 8% 9% 12% 12% 11% 11% 14%
    x264 info: i8c dc,h,v,p: 30% 34% 19% 17%
    x264 info: Weighted P-Frames: Y:5.1% UV:2.4%
    x264 info: ref P L0: 48.3% 9.4% 12.7% 6.5% 5.1% 4.2% 3.6% 2.3% 2.1% 1.9% 1.8% 1.8% 0.2% 0.0%
    x264 info: ref B L0: 86.8% 4.7% 2.7% 1.4% 1.1% 0.9% 0.8% 0.5% 0.5% 0.4% 0.3%
    x264 info: ref B L1: 96.8% 3.2%
    x264 info: kb/s:3554.67
    iTunes tags


    Sort Name: Boksuneun naui geot
    XID: Apple:vendor_id:2002-75872
    Content ID: 75872
    Copyright: CJ Entertainment, Studio Box
    ScreenWriters: Джей-сун Ли, Чжон-Ён Ли, Му-ён Ли
    Producers: Джей-сун Ли, Чжин-гю Лим, Кан-бок Ли
    Director: Пак Чхан Ук
    Cast: Сон Кан Хо, Син Ха Гюн, Пэ Ду На, Чжи-ын Лим, Хан Бо Бэ, Ким Се Дон, Ли Дэ Ён, Масаси Фудзимото, Чу-бон Джи, Чжон Гю Сю // Song Kang-ho (Park Dong-jin), Ha-kyun Shin (Ryu), DooNa Bae (Cha Yeong-mi), Ji-Eun Lim (Ryus Schwester), BoBae Han (Yu-Sun), Dae-yeon Lee (Choe), Se-dong Kim (Chief of Staff)
    Rating: R
    Long Deion: История глухонемого Рю и его сестры, которой нужно пересадить почку. Начальник Рю, Пак, только что уволил его, и Рю со своей подружкой решают похитить дочь Пака, чтобы на полученный выкуп сделать трансплантацию. Но все идет катастрофически не так, и ситуация очень скоро перерастает в лавину насилия и мести…
    Deion: История глухонемого Рю и его сестры, которой нужно пересадить почку. Начальник Рю, Пак, только что уволил его, и Рю со своей подружкой решают похитить дочь Пака, чтобы на полученный выкуп сделать трансплантацию. Но все идет катастрофически не так...
    Release Date: 2002-03-29T08:00:00Z
    Genre: Crime
    Artist: Chan-wook Park
    Name: Сочувствие Господину Месть
    Comments: Поэма о мести




    full-size screenshots










    Залил: gekka
    Размер скачиваемого торрента: 3.14 GB (3367251060 Bytes)

    Сочувствие господину Месть / Boksuneun naui geota (2002) BDRip-AVC | iPad | P скачать через торрент бесплатно
    загрузка...
    Рейтинг →
     (голосов: 1, оценка 4/5, голосовать можно 1 раз )

    Другие торренты по теме:

  • Сочувствие господину Месть / Boksuneun naui geot (2002) DVD9 | P
  • Сочувствие господину Месть / Boksuneun naui geot (2002) BDRip 1080p | P2, A
  • Сочувствие господину Месть / Boksuneun naui geot (2002) BDRemux 1080p | P, P2, A, L1


    • Комментарии (0):

      Информация

      Информация

        Посетители, находящиеся в группе Гости, не могут оставлять комментарии в данной новости.

        ↓ Меню



        ↓ Опрос

        А Вы добавили сайт в закладки?
        Да
        Не


        Top 10 за месяц (Фильмы)