.
Авторизация | Регистрация
» » Не покидай меня (2013) HDTV 1080i скачать через торрент бесплатно




    Не покидай меня (2013) HDTV 1080i скачать через торрент бесплатно

    Опубликовал: Админ | Дата: 27-02-2015, 11:10 | Просмотров: 244


    Русское название в мировом прокате: Не покидай меня
    Создали в: 2013
    Категория жанра: Военный, приключения
    Снималось в: Россия, Марс Медиа Энтертейнмент
    Главный режиссер: Александр Франскевич-Лайе
    Актеры: Алексей Гуськов, Евгения Брик (Хиривская), Наталия Быстрова, Анна Рыцарева, Ольга Шувалова, Вероника Пляшкевич, Иван Мацкевич, Игорь Денисов


    Для выполнения особо важного задания фронтовик-разведчик капитан Михасев должен получить под свое командование спецразведгруппу из четырех бойцов. Только эти бойцы оказываются… юными девушками. Вчерашним школьницам предстоит проникнуть на узел связи вражеской армии и парализовать его работу, обеспечив успех наступательной операции советских войск.



    Релиз подготовил:

    MedeiaInfo
    General
    ID : 1 (0x1)
    Complete name : E:UsersМаксимкаDownloadsNe.pokidaj.menjaNe.pokidaj.menja.01.HDTV.1080p.ts
    Format : MPEG-TS
    File size : 4.30 GiB
    Duration : 45mn 11s
    Overall bit rate mode : Variable
    Overall bit rate : 13.6 Mbps

    Video
    ID : 1603 (0x643)
    Menu ID : 1 (0x1)
    Format : AVC
    Format/Info : Advanced Video Codec
    Format profile : High@L4.0
    Format settings, CABAC : Yes
    Format settings, ReFrames : 3 frames
    Codec ID : 27
    Duration : 45mn 11s
    Bit rate : 12.8 Mbps
    Width : 1 920 pixels
    Height : 1 080 pixels
    Display aspect ratio : 16:9
    Frame rate : 25.000 fps
    Standard : Component
    Color space : YUV
    Chroma subsampling : 4:2:0
    Bit depth : 8 bits
    Scan type : Interlaced
    Scan order : Top Field First
    Bits/(Pixel*Frame) : 0.246
    Stream size : 4.03 GiB (94%)
    Color primaries : BT.709
    Transfer characteristics : BT.709
    Matrix coefficients : BT.709

    Audio
    ID : 2603 (0xA2B)
    Menu ID : 1 (0x1)
    Format : MPEG Audio
    Format version : Version 1
    Format profile : Layer 2
    Codec ID : 3
    Duration : 45mn 11s
    Bit rate mode : Constant
    Bit rate : 192 Kbps
    Channel(s) : 2 channels
    Sampling rate : 48.0 KHz
    Compression mode : Lossy
    Stream size : 62.1 MiB (1%)


    Качество фильма: HDTV (1080i)
    Информация о видео: AVC, 12.8 Мбит/с, 1920x1080, 25.000 кадр/с
    Информация о звуке: AC3, 2 ch, 384 Кбит/с
    Время просмотра: 4х ~ 00:45:00
    Язык: Русский


    Залил: maksnev82
    Размер скачиваемого торрента: 16.50 GB (17714602116 Bytes)

    Не покидай меня (2013) HDTV 1080i скачать через торрент бесплатно
    загрузка...
    Рейтинг →
     (голосов: 1, оценка 3/5, голосовать можно 1 раз )

    Другие торренты по теме:

  • Покидая Лас-Вегас / Leaving Las Vegas (1995) BDRip-AVC от 0ptimus | P2, A скачать через торрент бесплатно
  • Не покидай меня (2013) WEB-DLRip от GeneralFilm скачать через торрент бесплатно
  • Не покидай меня (2013) WEB-DL 1080p от MediaClub скачать через торрент бесплатно
  • Не покидай меня (2013) HDTVRip 720p от MediaClub скачать через торрент бесплатно
  • Не покидай меня (2013) HDTV 1080i от MediaClub скачать через торрент бесплатно
  • Не покидай меня (2013) HDTVRip скачать через торрент бесплатно
  • Не покидай меня (2013) SATRip скачать через торрент бесплатно
  • Не покидай меня! (2013) DVDRip от New-Team | лицензия скачать через торрент бесплатно


    • Комментарии (0):

      Информация

      Информация

        Посетители, находящиеся в группе Гости, не могут оставлять комментарии в данной новости.

        ↓ Меню



        ↓ Опрос

        А Вы добавили сайт в закладки?
        Да
        Не


        Top 10 за неделю (Фильмы)