.
Авторизация | Регистрация
» » Двойной КОПец / Cop Out (2010) BDRip by msltel | D, A, L1 торрент скачать бесплатно




    Двойной КОПец / Cop Out (2010) BDRip by msltel | D, A, L1 торрент скачать бесплатно

    Опубликовал: Админ | Дата: 27-02-2015, 11:10 | Просмотров: 252



    Русское название: Двойной КОПец
    Русское название в мировом прокате: Cop Out
    Создали в: 2010
    Категория жанра: Боевик, комедия, криминал
    Снималось в: США, Warner Bros. Pictures
    Главный режиссер: Кевин Смит
    Актеры: Брюс Уиллис, Трэйси Морган, Адам Броди, Шонн Уильям Скотт, Мишель Трахтенберг, Джейсон Ли, Кевин Поллак, Марк Консуэлос, Гильермо Диаз, Эдриэн Мартинес, Ана де ла Регера

    Сюжет фильма: История двух давних напарников — нью-йоркских полицейских, занятых поисками очень редкой и чертовски дорогой бейсбольной карточки, украденной у одного из них. Они вынуждены противостоять беспощадному гангстеру, просто помешанному на коллекционных вещицах. Джимми, всю жизнь проработавший в полиции, возлагал на пропавшую карточку все свои надежды, так как только с помощью неё он мог бы оплатить предстоящую свадьбу дочери, а Пол, его, так называемый, напарник в борьбе с преступностью, столь зацикливается на предполагаемой неверности своей жены, что ему становится уже непросто отслеживать пропажу...

    Качество фильма: BDRip
    Размер скачиваемого торрента: 3.44 ГБ
    Время просмотра: 01:47:30

    Информация о видео: XviD, 1575 Кбит/с, 720x304
    Информация о звуке 1: русский, 48 kHz, AC3, 6 ch, 384 kbps avg, Дублированный
    Информация о звуке 2: русский, 48 kHz, AC3, 6 ch, 448 kbps avg, Авторский, Андрей Гаврилов
    Информация о звуке 3: русский, 48 kHz, AC3, 6 ch, 448 kbps avg, Авторский, Юрий Немахов

    Внешние файлы
    Информация о звуке: русский, 48 kHz, AC3, 2 ch, 224 kbps avg, Авторский, Дмитрий Пучков - Гоблин *Качество звука - низкое.
    Информация о звуке: русский, 48 kHz, AC3, 6 ch, 384 kbps avg, Любительский, с, Ловаситов
    Информация о звуке: русский, 48 kHz, MP3, 2 ch, 192 kbps avg, Любительский, Den904, по субтитрам Гоблина
    Информация о звуке: русский, 48 kHz, AC3, 6 ch, 448 kbps avg, Любительский, seqw0
    Информация о звуке: английский, 48 kHz, AC3, 6 ch, 448 kbps avg, Оригинал
    Субтитры: русские, R5
    Субтитры: русские, Гоблин
    Субтитры: русские, seqw0
    Субтитры: английские
    Субтитры: французские

    Авторские, любительские переводы и сабы (кроме R5) - с ненормативной лексикой.

    Исходник: morov (HDtracker)

    Сравнение с исходником



    MediaInfo
    Общее
    Полное имя : D:VideoDvojnoj KOPec.2010.XviD.BDRipDvojnoj KOPec.2010.AVO.rus.Гоблин.ac3
    Формат : AC-3
    Формат/Информация : Audio Coding 3
    Размер файла : 172 Мбайт
    Продолжительность : 1 ч. 47 м.
    Режим общего битрейта : Постоянный
    Общий поток : 224 Кбит/сек

    Аудио
    Формат : AC-3
    Формат/Информация : Audio Coding 3
    Расширение режима : CM (complete main)
    Параметр Endianness формата : Big
    Продолжительность : 1 ч. 47 м.
    Вид битрейта : Постоянный
    Битрейт : 224 Кбит/сек
    Каналы : 2 канала
    Расположение каналов : Front: L R
    Частота : 48,0 КГц
    Битовая глубина : 16 бит
    Метод сжатия : С потерями
    Размер потока : 172 Мбайт (100%)

    Общее
    Полное имя : D:VideoDvojnoj KOPec.2010.XviD.BDRipDvojnoj KOPec.2010.eng.srt
    Формат : SubRip
    Размер файла : 119 Кбайт

    Текст
    Формат : SubRip
    Метод сжатия : Без потерь

    Общее
    Полное имя : D:VideoDvojnoj KOPec.2010.XviD.BDRipDvojnoj KOPec.2010.fre.srt
    Формат : SubRip
    Размер файла : 103 Кбайт

    Текст
    Формат : SubRip
    Метод сжатия : Без потерь

    Общее
    Полное имя : D:VideoDvojnoj KOPec.2010.XviD.BDRipDvojnoj KOPec.2010.Original.eng.ac3
    Формат : AC-3
    Формат/Информация : Audio Coding 3
    Размер файла : 344 Мбайт
    Продолжительность : 1 ч. 47 м.
    Режим общего битрейта : Постоянный
    Общий поток : 448 Кбит/сек

    Аудио
    Формат : AC-3
    Формат/Информация : Audio Coding 3
    Расширение режима : CM (complete main)
    Параметр Endianness формата : Big
    Продолжительность : 1 ч. 47 м.
    Вид битрейта : Постоянный
    Битрейт : 448 Кбит/сек
    Каналы : 6 каналов
    Расположение каналов : Front: L C R, Side: L R, LFE
    Частота : 48,0 КГц
    Битовая глубина : 16 бит
    Метод сжатия : С потерями
    Размер потока : 344 Мбайт (100%)

    Общее
    Полное имя : D:VideoDvojnoj KOPec.2010.XviD.BDRipDvojnoj KOPec.2010.rus.R5.srt
    Формат : SubRip
    Размер файла : 99,9 Кбайт

    Текст
    Формат : SubRip
    Метод сжатия : Без потерь

    Общее
    Полное имя : D:VideoDvojnoj KOPec.2010.XviD.BDRipDvojnoj KOPec.2010.rus.seqw0.srt
    Формат : SubRip
    Размер файла : 150 Кбайт

    Текст
    Формат : SubRip
    Метод сжатия : Без потерь

    Общее
    Полное имя : D:VideoDvojnoj KOPec.2010.XviD.BDRipDvojnoj KOPec.2010.rus.Гоблин.srt
    Формат : SubRip
    Размер файла : 148 Кбайт

    Текст
    Формат : SubRip
    Метод сжатия : Без потерь

    Общее
    Полное имя : D:VideoDvojnoj KOPec.2010.XviD.BDRipDvojnoj KOPec.2010.VO.rus.Den904, любительский, по сабам Гоблина.mp3
    Формат : MPEG Audio
    Размер файла : 148 Мбайт
    Продолжительность : 1 ч. 47 м.
    Режим общего битрейта : Постоянный
    Общий поток : 192 Кбит/сек
    Библиотека кодирования : LAME3.96

    Аудио
    Формат : MPEG Audio
    Версия формата : Version 1
    Профиль формата : Layer 3
    Режим : Joint stereo
    Расширение режима : MS Stereo
    Продолжительность : 1 ч. 47 м.
    Вид битрейта : Постоянный
    Битрейт : 192 Кбит/сек
    Каналы : 2 канала
    Частота : 48,0 КГц
    Метод сжатия : С потерями
    Размер потока : 148 Мбайт (100%)
    Библиотека кодирования : LAME3.96

    Общее
    Полное имя : D:VideoDvojnoj KOPec.2010.XviD.BDRipDvojnoj KOPec.2010.VO.rus.seqw0, любительский.ac3
    Формат : AC-3
    Формат/Информация : Audio Coding 3
    Размер файла : 344 Мбайт
    Продолжительность : 1 ч. 47 м.
    Режим общего битрейта : Постоянный
    Общий поток : 448 Кбит/сек

    Аудио
    Формат : AC-3
    Формат/Информация : Audio Coding 3
    Расширение режима : CM (complete main)
    Параметр Endianness формата : Big
    Продолжительность : 1 ч. 47 м.
    Вид битрейта : Постоянный
    Битрейт : 448 Кбит/сек
    Каналы : 6 каналов
    Расположение каналов : Front: L C R, Side: L R, LFE
    Частота : 48,0 КГц
    Битовая глубина : 16 бит
    Метод сжатия : С потерями
    Размер потока : 344 Мбайт (100%)

    Общее
    Полное имя : D:VideoDvojnoj KOPec.2010.XviD.BDRipDvojnoj KOPec.2010.VO.rus.С.Ловаситов, любительский.ac3
    Формат : AC-3
    Формат/Информация : Audio Coding 3
    Размер файла : 295 Мбайт
    Продолжительность : 1 ч. 47 м.
    Режим общего битрейта : Постоянный
    Общий поток : 384 Кбит/сек

    Аудио
    Формат : AC-3
    Формат/Информация : Audio Coding 3
    Расширение режима : CM (complete main)
    Параметр Endianness формата : Big
    Продолжительность : 1 ч. 47 м.
    Вид битрейта : Постоянный
    Битрейт : 384 Кбит/сек
    Каналы : 6 каналов
    Расположение каналов : Front: L C R, Side: L R, LFE
    Частота : 48,0 КГц
    Битовая глубина : 16 бит
    Метод сжатия : С потерями
    Размер потока : 295 Мбайт (100%)

    Общее
    Полное имя : D:VideoDvojnoj KOPec.2010.XviD.BDRipDvojnoj KOPec.2010.XviD.BDRip.avi
    Формат : AVI
    Формат/Информация : Audio Video Interleave
    Профиль формата : OpenDML
    Размер файла : 2,16 Гбайт
    Продолжительность : 1 ч. 47 м.
    Общий поток : 2879 Кбит/сек
    Программа кодирования : VirtualDubMod 1.5.10.2 (build 2540/release)
    Библиотека кодирования : VirtualDubMod build 2540/release

    Видео
    Идентификатор : 0
    Формат : MPEG-4 Visual
    Профиль формата : Advanced Simple@L5
    Параметр BVOP формата : 1
    Параметр QPel формата : Нет
    Параметр GMC формата : Без точки перехода
    Параметр матрицы формата : Default (H.263)
    Режим смешивания : Сжатый битовый поток
    Идентификатор кодека : XVID
    Идентификатор кодека/Подсказка : XviD
    Продолжительность : 1 ч. 47 м.
    Битрейт : 1575 Кбит/сек
    Ширина : 720 пикселей
    Высота : 304 пикселя
    Соотношение сторон : 2,35:1
    Частота кадров : 23,976 кадра/сек
    Цветовое пространство : YUV
    Субдискретизация насыщенности : 4:2:0
    Битовая глубина : 8 бит
    Тип развёртки : Прогрессивная
    Метод сжатия : С потерями
    Бит/(Пиксели*Кадры) : 0.300
    Размер потока : 1,18 Гбайт (55%)
    Библиотека кодирования : XviD 1.2.1 (UTC 2008-12-04)

    Аудио #1
    Идентификатор : 1
    Формат : AC-3
    Формат/Информация : Audio Coding 3
    Расширение режима : CM (complete main)
    Параметр Endianness формата : Big
    Идентификатор кодека : 2000
    Продолжительность : 1 ч. 47 м.
    Вид битрейта : Постоянный
    Битрейт : 384 Кбит/сек
    Каналы : 6 каналов
    Расположение каналов : Front: L C R, Side: L R, LFE
    Частота : 48,0 КГц
    Битовая глубина : 16 бит
    Метод сжатия : С потерями
    Размер потока : 295 Мбайт (13%)
    Выравнивание : Разделение по промежуткам
    Продолжительность промежутка : 42 мс. (1,00 видеокадр)
    Время предзагрузки промежутка : 500 мс.

    Аудио #2
    Идентификатор : 2
    Формат : AC-3
    Формат/Информация : Audio Coding 3
    Расширение режима : CM (complete main)
    Параметр Endianness формата : Big
    Идентификатор кодека : 2000
    Продолжительность : 1 ч. 47 м.
    Вид битрейта : Постоянный
    Битрейт : 448 Кбит/сек
    Каналы : 6 каналов
    Расположение каналов : Front: L C R, Side: L R, LFE
    Частота : 48,0 КГц
    Битовая глубина : 16 бит
    Метод сжатия : С потерями
    Размер потока : 344 Мбайт (16%)
    Выравнивание : Разделение по промежуткам
    Продолжительность промежутка : 42 мс. (1,00 видеокадр)
    Время предзагрузки промежутка : 500 мс.

    Аудио #3
    Идентификатор : 3
    Формат : AC-3
    Формат/Информация : Audio Coding 3
    Расширение режима : CM (complete main)
    Параметр Endianness формата : Big
    Идентификатор кодека : 2000
    Продолжительность : 1 ч. 47 м.
    Вид битрейта : Постоянный
    Битрейт : 448 Кбит/сек
    Каналы : 6 каналов
    Расположение каналов : Front: L C R, Side: L R, LFE
    Частота : 48,0 КГц
    Битовая глубина : 16 бит
    Метод сжатия : С потерями
    Размер потока : 344 Мбайт (16%)
    Выравнивание : Разделение по промежуткам
    Продолжительность промежутка : 42 мс. (1,00 видеокадр)
    Время предзагрузки промежутка : 500 мс.
    Скриншоты для ознакомления


    Залил: msltel
    Размер скачиваемого торрента: 3.44 GB (3689648368 Bytes)

    Двойной КОПец / Cop Out (2010) BDRip by msltel | D, A, L1 торрент скачать бесплатно
    загрузка...
    Рейтинг →
     (голосов: 1, оценка 5/5, голосовать можно 1 раз )

    Другие торренты по теме:

  • Двойной КОПец / Cop Out (2010) BDRip-AVC торрент скачать бесплатно
  • Двойной КОПец / Cop Out (2010) Blu-Ray 1080p | Theatrical Cut торрент скачать бесплатно
  • Двойной КОПец / Cop Out (2010) BDRemux 1080p от ExKinoRay | Лицензия скачать через торрент бесплатно
  • Двойной КОПец / Cop Out (2010) BDRip-AVC от Rulya74 скачать через торрент бесплатно
  • Двойной КОПец / Крепкие Орешки / Cop Out (2010) BDRip от HQCLUB | Лицензия торрент скачать бесплатно
  • Двойной КОПец / Cop Out (2010) BDRip 720p by msltel | D, A, L1 скачать через торрент бесплатно
  • Двойной КОПец / Cop Out (2010) BDRip 1080p by msltel | D, A, L1 торрент скачать бесплатно


    • Комментарии (0):

      Информация

      Информация

        Посетители, находящиеся в группе Гости, не могут оставлять комментарии в данной новости.

        ↓ Меню



        ↓ Опрос

        А Вы добавили сайт в закладки?
        Да
        Не


        Top 10 за неделю (Фильмы)