.
Авторизация | Регистрация
Хочешь лучшие торренты? Добавь свой email!
Добавить
» » Анна / Экстрасенс / Anna / Mindscape (2013) WEB-DL 720p от CINEMANIA | L1 торрент скачать бесплатно




    Анна / Экстрасенс / Anna / Mindscape (2013) WEB-DL 720p от CINEMANIA | L1 торрент скачать бесплатно

    Опубликовал: Админ | Дата: 27-02-2015, 11:10 | Просмотров: 271



    Детально о кино
    Русское название: Анна / Экстрасенс
    Русское название в мировом прокате: Anna / Mindscape
    Создали в: 2013
    Категория жанра: триллер, драма
    Главный режиссер: Хорхе С. Дорадо
    Актеры: Индира Варма, Таисса Фармига, Марк Стронг, Брайан Кокс, Ноа Тейлор, Род Халлетт, Саския Ривз, Джессика Барден, Клер Кэлбрайт, Альберто Амман

    Сюжет фильма:
    Джон обладает незаурядными экстрасенсорными способностями, и это помогает ему расследовать самые запутанные и необычные преступления. На этот раз судьба сводит его с юной девушкой, которая ужасно напугана. Но чем больше обстоятельств этого дела открывается Джону, тем труднее ему ответить на вопрос, кем же в большей степени является Анна – безумной убийцей или же несчастной жертвой обстоятельств.



    Снималось в: США, Испания, Франция
    Время просмотра: 01:38:47
    Тип перевода: Любительское (одноголосое) datynet

    Файл
    Тип видео: MKV
    Качество фильма: WEB-DL 720p PHD
    Информация о видео: 3112 kb/s, 1280x534
    Информация о звуке: Russian: AC3, 192 kb/s (2 ch) / English: AC3, 384 kb/s (6 ch)
    Субтитры: English
    Дополнительно: Сохранены оригинальные чаптеры как на Blu-Ray
    Размер скачиваемого торрента: 2.60 GB
    Скачать: Сэмпл

    Релиз группы:



    NFO
    Общее
    Anna.2013.WEB-DL.720p.CINEMANIA.mkv
    Формат : Matroska
    Версия формата : Version 4 / Version 2
    Размер файла : 2,60 Гбайт
    Продолжительность : 1 ч. 38 м.
    Общий поток : 3763 Кбит/сек
    Название фильма : Release Group CINEMANIA
    Дата кодирования : UTC 2014-05-11 11:39:34
    Программа кодирования : mkvmerge v6.9.1 (;Blue Panther;) 64bit built on Apr 18 2014 18:23:38
    Библиотека кодирования : libebml v1.3.0 + libmatroska v1.4.1

    Видео
    Идентификатор : 1
    Формат : AVC
    Формат/Информация : Advanced Video Codec
    Профиль формата : Main@L3.1
    Параметр CABAC формата : Нет
    Параметр ReFrames формата : 2 кадра
    Идентификатор кодека : V_MPEG4/ISO/AVC
    Продолжительность : 1 ч. 38 м.
    Битрейт : 3112 Кбит/сек
    Ширина : 1280 пикселей
    Высота : 534 пикселя
    Соотношение сторон : 2,40:1
    Режим частоты кадров : Постоянный
    Частота кадров : 23,976 кадра/сек
    Цветовое пространство : YUV
    Субдискретизация насыщенности : 4:2:0
    Битовая глубина : 8 бит
    Тип развёртки : Прогрессивная
    Бит/(Пиксели*Кадры) : 0.190
    Размер потока : 2,15 Гбайт (83%)
    Заголовок : Release Group CINEMANIA
    Язык : English
    Default : Да
    Forced : Нет
    Основные цвета : BT.709
    Характеристики трансфера : BT.709
    Коэффициенты матрицы : BT.709

    Аудио #1
    Идентификатор : 2
    Формат : AC-3
    Формат/Информация : Audio Coding 3
    Расширение режима : CM (complete main)
    Параметр Endianness формата : Big
    Идентификатор кодека : A_AC3
    Продолжительность : 1 ч. 38 м.
    Вид битрейта : Постоянный
    Битрейт : 192 Кбит/сек
    Каналы : 2 канала
    Расположение каналов : Front: L R
    Частота : 44,1 КГц
    Битовая глубина : 16 бит
    Метод сжатия : С потерями
    Размер потока : 136 Мбайт (5%)
    Заголовок : datynet
    Язык : Russian
    Default : Да
    Forced : Да

    Аудио #2
    Идентификатор : 3
    Формат : AC-3
    Формат/Информация : Audio Coding 3
    Расширение режима : CM (complete main)
    Параметр Endianness формата : Big
    Идентификатор кодека : A_AC3
    Продолжительность : 1 ч. 38 м.
    Вид битрейта : Постоянный
    Битрейт : 384 Кбит/сек
    Каналы : 6 каналов
    Расположение каналов : Front: L C R, Side: L R, LFE
    Частота : 48,0 КГц
    Битовая глубина : 16 бит
    Метод сжатия : С потерями
    Размер потока : 271 Мбайт (10%)
    Язык : English
    Default : Нет
    Forced : Нет

    Текст
    Идентификатор : 4
    Формат : UTF-8
    Идентификатор кодека : S_TEXT/UTF8
    Идентификатор кодека/Информация : UTF-8 Plain Text
    Язык : English
    Default : Нет
    Forced : Нет

    Меню
    00:00:00.000 : en:1
    00:05:32.000 : en:2
    00:11:41.000 : en:3
    00:20:29.000 : en:4
    00:29:07.000 : en:5
    00:37:02.000 : en:6
    00:47:26.000 : en:7
    00:55:27.000 : en:8
    01:05:58.000 : en:9
    01:14:07.000 : en:10
    01:24:32.000 : en:11
    01:32:53.000 : en:12

    Залил: DGEKIGAN
    Размер скачиваемого торрента: 2.60 GB (2787855760 Bytes)

    Анна / Экстрасенс / Anna / Mindscape (2013) WEB-DL 720p от CINEMANIA | L1 торрент скачать бесплатно
    загрузка...
    Рейтинг →
     (голосов: 1, оценка 3/5, голосовать можно 1 раз )

    Другие торренты по теме:

  • Анна - королева пиратов (Анна Индийская) / Anne of the Indies / 1951 / 2 x ПМ / Blu-Ray Remux (1080i)
  • Анна Каренина / Anna Karenina (2012) DVDScr | Звук с TS
  • OST - Анна Каренина / Anna Karenina Soundtrack (2012) MP3
  • Анна Каренина (2009) DVB
  • Анна Каренина (2009) HDTV 1080i
  • Анна Каренина (2009) SATRip
  • Анна Каренина (2009) HDTVRip
  • Анна Каренина (2009) HDTVRip от Files-x


    • Комментарии (0):

      Информация

      Информация

        Посетители, находящиеся в группе Гости, не могут оставлять комментарии в данной новости.

        ↓ Меню



        ↓ Опрос

        А Вы добавили сайт в закладки?
        Да
        Не


        Top 10 за месяц (Фильмы)