.
Авторизация | Регистрация
Хочешь лучшие торренты? Добавь свой email!
Добавить
» » Охранник / The Sentinel (2006) BDRip-AVC | D, P, P2 торрент скачать бесплатно




    Охранник / The Sentinel (2006) BDRip-AVC | D, P, P2 торрент скачать бесплатно

    Опубликовал: Админ | Дата: 27-02-2015, 11:10 | Просмотров: 276



    Детально о кино
    Русское название: Охранник
    Русское название в мировом прокате: The Sentinel
    Создали в: 2006
    Категория жанра: Боевик, триллер, криминал
    Главный режиссер: Кларк Джонсон
    Актеры: Майкл Дуглас, Кифер Сазерленд, Ева Лонгория Паркер, Мартин Донован, Ричи Костер, Ким Бейсинджер, Блэр Браун, Дэвид Раш, Кристин Леман, Рейнор Шайни, Чак Шамата, Пол Кэлдерон, Кларк Джонсон, Рауль Банеджа, Янна МакИнтош, Джошуа Пиис, Саймон Рейнольдс
    О фильме:
    Специальный агент Пит Гаррисон убежден, что в Белом Доме завелся предатель. Его теория находит подтверждение после убийства одного из охранников президента. Однако подозрение падает на самого Гаррисона. Его отстраняют от дел, и ко всему прочему вменяют в вину связь с первой леди. Жизнь президентской семьи в опасности. Пытаясь найти предателя, Гаррисон вынужден воевать с системой, которую он сам создал…



    Снималось в: США / 20th Century Fox Film Corporation, Regency Enterprises, Further Films, New Regency Pictures
    Время просмотра: 01:48:00
    Перевод текста: Дублированный, Профессиональный многоголосый, профессиональный двухголосый

    Файл
    Качество фильма: BDRip (AVC)
    Информация о видео: MPEG-4 AVC, 2396 Кбит/с, 1024x426, 23.976 кадр/с
    Информация о звуке:
    • №1: Русский (AC3, 6 ch, 384 Кбит/с) Дублированный
    • №2: Русский (AC3, 6 ch, 384 Кбит/с) Профессиональный многоголосый Tycoon Studio
    • №3: Русский (AC3, 6 ch, 384 Кбит/с) Профессиональный двухголосый Петр Гланц и Инна Королева
    • №4: Английский (AC3, 6 ch, 384 Кбит/с)
    Субтитры: Russian, English

    MediaInfo
    Формат : Matroska
    Версия формата : Version 4 / Version 2
    Размер файла : 2,96 Гбайт
    Продолжительность : 1 ч. 48 м.
    Общий поток : 3920 Кбит/сек
    Название фильма : Охранник | The Sentinel 2006 -=BDRip (AVC) by 0ptimus=-
    Дата кодирования : UTC 2013-03-14 10:40:07
    Программа кодирования : mkvmerge v6.1.0 (;Old Devil;) built on Mar 2 2013 14:32:37
    Библиотека кодирования : libebml v1.3.0 + libmatroska v1.4.0

    Видео
    Идентификатор : 1
    Формат : AVC
    Формат/Информация : Advanced Video Codec
    Профиль формата : High@L4.1
    Параметр CABAC формата : Да
    Параметр ReFrames формата : 9 кадров
    Идентификатор кодека : V_MPEG4/ISO/AVC
    Продолжительность : 1 ч. 48 м.
    Битрейт : 2396 Кбит/сек
    Ширина : 1024 пикселя
    Высота : 426 пикселей
    Соотношение сторон : 2,40:1
    Режим частоты кадров : Постоянный
    Частота кадров : 23,976 кадра/сек
    Цветовое пространство : YUV
    Субдискретизация насыщенности : 4:2:0
    Битовая глубина : 8 бит
    Тип развёртки : Прогрессивная
    Бит/(Пиксели*Кадры) : 0.229
    Размер потока : 1,74 Гбайт (59%)
    Заголовок : Rip by 0ptimus
    Библиотека кодирования : x264 core 129 r2245 bc13772
    Настройки программы : cabac=1 / ref=9 / deblock=1:-3:-3 / analyse=0x3:0x113 / me=umh / subme=10 / psy=1 / psy_rd=1.00:0.20 / mixed_ref=1 / me_range=32 / chroma_me=1 / trellis=2 / 8x8dct=1 / cqm=0 / deadzone=21,11 / fast_pskip=0 / chroma_qp_offset=-3 / threads=3 / lookahead_threads=1 / sliced_threads=0 / nr=0 / decimate=0 / interlaced=0 / bluray_compat=0 / constrained_intra=0 / bframes=7 / b_pyramid=2 / b_adapt=2 / b_bias=0 / direct=3 / weightb=1 / open_gop=0 / weightp=2 / keyint=240 / keyint_min=23 / scenecut=40 / intra_refresh=0 / rc_lookahead=40 / rc=2pass / mbtree=0 / bitrate=2396 / ratetol=1.0 / qcomp=0.60 / qpmin=0 / qpmax=69 / qpstep=4 / cplxblur=20.0 / qblur=0.5 / vbv_maxrate=50000 / vbv_bufsize=50000 / nal_hrd=none / ip_ratio=1.40 / pb_ratio=1.30 / aq=1:1.00
    Язык : English
    Default : Да
    Forced : Да

    Аудио #1
    Идентификатор : 2
    Формат : AC-3
    Формат/Информация : Audio Coding 3
    Расширение режима : CM (complete main)
    Параметр Endianness формата : Big
    Идентификатор кодека : A_AC3
    Продолжительность : 1 ч. 48 м.
    Вид битрейта : Постоянный
    Битрейт : 384 Кбит/сек
    Каналы : 6 каналов
    Расположение каналов : Front: L C R, Side: L R, LFE
    Частота : 48,0 КГц
    Битовая глубина : 16 бит
    Метод сжатия : С потерями
    Размер потока : 297 Мбайт (10%)
    Заголовок : Дублированный
    Язык : Russian
    Default : Да
    Forced : Да

    Аудио #2
    Идентификатор : 3
    Формат : AC-3
    Формат/Информация : Audio Coding 3
    Расширение режима : CM (complete main)
    Параметр Endianness формата : Big
    Идентификатор кодека : A_AC3
    Продолжительность : 1 ч. 48 м.
    Вид битрейта : Постоянный
    Битрейт : 384 Кбит/сек
    Каналы : 6 каналов
    Расположение каналов : Front: L C R, Side: L R, LFE
    Частота : 48,0 КГц
    Битовая глубина : 16 бит
    Метод сжатия : С потерями
    Размер потока : 297 Мбайт (10%)
    Заголовок : Многоголосый закадровый Tycoon
    Язык : Russian
    Default : Нет
    Forced : Нет

    Аудио #3
    Идентификатор : 4
    Формат : AC-3
    Формат/Информация : Audio Coding 3
    Расширение режима : CM (complete main)
    Параметр Endianness формата : Big
    Идентификатор кодека : A_AC3
    Продолжительность : 1 ч. 48 м.
    Вид битрейта : Постоянный
    Битрейт : 384 Кбит/сек
    Каналы : 6 каналов
    Расположение каналов : Front: L C R, Side: L R, LFE
    Частота : 48,0 КГц
    Битовая глубина : 16 бит
    Метод сжатия : С потерями
    Размер потока : 297 Мбайт (10%)
    Заголовок : Двухголосый закадровый Петр Гланц и Инна Королева
    Язык : Russian
    Default : Нет
    Forced : Нет

    Аудио #4
    Идентификатор : 5
    Формат : AC-3
    Формат/Информация : Audio Coding 3
    Расширение режима : CM (complete main)
    Параметр Endianness формата : Big
    Идентификатор кодека : A_AC3
    Продолжительность : 1 ч. 48 м.
    Вид битрейта : Постоянный
    Битрейт : 384 Кбит/сек
    Каналы : 6 каналов
    Расположение каналов : Front: L C R, Side: L R, LFE
    Частота : 48,0 КГц
    Битовая глубина : 16 бит
    Метод сжатия : С потерями
    Размер потока : 297 Мбайт (10%)
    Язык : English
    Default : Нет
    Forced : Нет

    Текст #1
    Идентификатор : 6
    Формат : UTF-8
    Идентификатор кодека : S_TEXT/UTF8
    Идентификатор кодека/Информация : UTF-8 Plain Text
    Язык : Russian
    Default : Нет
    Forced : Нет

    Текст #2
    Идентификатор : 7
    Формат : UTF-8
    Идентификатор кодека : S_TEXT/UTF8
    Идентификатор кодека/Информация : UTF-8 Plain Text
    Язык : English
    Default : Нет
    Forced : Нет

    Меню
    00:00:00.000 : :Main Titles
    00:04:11.543 : :Morning Briefing
    00:08:20.333 : :Protecting The President
    00:12:30.208 : :First Day On The Job
    00:18:22.351 : :It;s Personal
    00:23:18.772 : :Mole
    00:29:09.748 : :Photographs And Polygraphs
    00:34:36.700 : :Las Palmas
    00:38:38.816 : :Camp David
    00:42:28.546 : :Not According To Plan
    00:48:13.557 : :Under Investigation
    00:54:35.022 : :Fugitive
    00:58:16.535 : :A Good Ally To Have
    01:02:56.856 : :The Search For Walter Xavier
    01:07:35.760 : :Pulling The Trigger
    01:14:10.363 : :Evidence
    01:20:31.744 : :Coming Clean
    01:22:38.370 : :Fingerprint
    01:25:40.677 : :Old Friends Again
    01:27:22.612 : :Up Against The Wall
    01:30:19.789 : :Toronto
    01:32:00.473 : :Assassination Attempt
    01:38:27.401 : :Retirement
    01:42:35.274 : :Goodbye/End Titles
    Скриншоты для ознакомления



    Релиз подготовил:
    Размер скачиваемого торрента: 2.96 GB (3179350363 Bytes)

    Охранник / The Sentinel (2006) BDRip-AVC | D, P, P2 торрент скачать бесплатно
    загрузка...
    Рейтинг →
     (голосов: 1, оценка 5/5, голосовать можно 1 раз )

    Другие торренты по теме:

  • Охранник / The Sentinel (2006) BDRip 1080p | D, P
  • Охранник для дочери / Sara (1997) DVDRip от Scarabey | P
  • Охранник / The Sentinel / 2006 / ДБ, ПМ, ПД, СТ / BDRip (1080p)
  • Охранник / The Sentinel (2006) HDRip от Scarabey | D
  • Охранник / The Sentinel (2006) BDRip 720p | D, P, P2
  • Охранник / The Sentinel (2006) HDRip от Scarabey | D


    • Комментарии (0):

      Информация

      Информация

        Посетители, находящиеся в группе Гости, не могут оставлять комментарии в данной новости.

        ↓ Меню



        ↓ Опрос

        А Вы добавили сайт в закладки?
        Да
        Не


        Top 10 за месяц (Фильмы)