.
Авторизация | Регистрация
Хочешь лучшие торренты? Добавь свой email!
Добавить
» » Спрятавшиеся в лесу / Hidden in the woods (2012) DVB от MediaClub | P скачать через торрент бесплатно




    Спрятавшиеся в лесу / Hidden in the woods (2012) DVB от MediaClub | P скачать через торрент бесплатно

    Опубликовал: Админ | Дата: 27-02-2015, 11:10 | Просмотров: 263



    Детально о кино
    Русское название: Спрятавшиеся в лесу
    Русское название в мировом прокате: Hidden in the woods
    Создали в: 2012
    Категория жанра: Ужасы, боевик, триллер, драма
    Главный режиссер: Патрицио Валладарес
    Актеры: Сибони Ло, Каролина Эскобар, Даниэль Антивило, Хосе Фернандес,, Франсуа Сото, Доминго Гузман, Ренато Мюнстер, Агустин Агеро, Эрик Бустос, Даниэль Кандиа

    Сюжет фильма:
    Бандиты хранят свои наркотики в доме алкоголика Филиппа, который, убив жену, издевается над двумя дочерьми и насилует их. Когда в дом приезжают полицейские, Филипп решает эту проблему при помощи бензопилы. Девочки убегают в лес, взяв с собой умственно отсталого брата, но вскоре появляются бандиты…



    Снималось в: Чили
    Киностудия: Vallastudio Pictures, Maxilar Films
    Время просмотра: 01:32:04
    Перевод текста: Профессиональный многоголосый

    Файл
    Качество фильма: DVB
    Информация о видео: MPEG-2, 3022 Кбит/с, 720x576@1024x576
    Информация о звуке: Русский (АС3, 6 ch, 384 Кбит/с) / (MP2, 2 ch, 192 Кбит/с)

    Семпл

    Скриншоты для ознакомления

    MI
    Общее
    Полное имя : Sprjatavshiesja.v.lesu.2012.DVB.MediaClub.ts
    Формат : MPEG-TS
    Профиль формата : No PAT/PMT
    Размер файла : 2,44 Гбайт
    Продолжительность : 1 ч. 32 м.
    Режим общего битрейта : Переменный
    Общий поток : 3791 Кбит/сек

    Видео
    Идентификатор : 322 (0x142)
    Формат : MPEG Video
    Версия формата : Version 2
    Профиль формата : Main@Main
    Параметр BVOP формата : Да
    Параметр матрицы формата : Выборочная
    Параметр GOP формата : M=3, N=36
    Продолжительность : 1 ч. 32 м.
    Вид битрейта : Переменный
    Битрейт : 3022 Кбит/сек
    Максимальный битрейт : 15,0 Мбит/сек
    Ширина : 720 пикселей
    Высота : 576 пикселей
    Соотношение сторон : 16:9
    Частота кадров : 25,000 кадров/сек
    Стандарт вещания : PAL
    Цветовое пространство : YUV
    Субдискретизация насыщенности : 4:2:0
    Битовая глубина : 8 бит
    Тип развёртки : Чересстрочная
    Порядок развёртки : Верхнее поле первое
    Метод сжатия : С потерями
    Бит/(Пиксели*Кадры) : 0.291
    Размер потока : 1,94 Гбайт (80%)

    Аудио #1
    Идентификатор : 405 (0x195)
    Формат : MPEG Audio
    Версия формата : Version 1
    Профиль формата : Layer 2
    Продолжительность : 1 ч. 32 м.
    Вид битрейта : Постоянный
    Битрейт : 192 Кбит/сек
    Каналы : 2 канала
    Частота : 48,0 КГц
    Метод сжатия : С потерями
    Задержка видео : -460 мс.
    Размер потока : 126 Мбайт (5%)

    Аудио #2
    Идентификатор : 435 (0x1B3)
    Формат : AC-3
    Формат/Информация : Audio Coding 3
    Расширение режима : CM (complete main)
    Параметр Endianness формата : Big
    Продолжительность : 1 ч. 32 м.
    Вид битрейта : Постоянный
    Битрейт : 384 Кбит/сек
    Каналы : 6 каналов
    Расположение каналов : Front: L C R, Side: L R, LFE
    Частота : 48,0 КГц
    Битовая глубина : 16 бит
    Метод сжатия : С потерями
    Задержка видео : -580 мс.
    Размер потока : 253 Мбайт (10%)


    Релиз подготовил:
    Залил: poja
    Размер скачиваемого торрента: 2.44 GB (2617947376 Bytes)

    Спрятавшиеся в лесу / Hidden in the woods (2012) DVB от MediaClub | P скачать через торрент бесплатно
    загрузка...
    Рейтинг →
     (голосов: 1, оценка 5/5, голосовать можно 1 раз )

    Другие торренты по теме:



      Комментарии (0):

      Информация

      Информация

        Посетители, находящиеся в группе Гости, не могут оставлять комментарии в данной новости.

        ↓ Меню



        ↓ Опрос

        А Вы добавили сайт в закладки?
        Да
        Не


        Top 10 за месяц (Фильмы)