.
Авторизация | Регистрация
Хочешь лучшие торренты? Добавь свой email!
Добавить
» » Правительство / Borgen (2010) HDRip | P скачать через торрент бесплатно




    Правительство / Borgen (2010) HDRip | P скачать через торрент бесплатно

    Опубликовал: Админ | Дата: 27-02-2015, 11:10 | Просмотров: 233



    Детально о кино
    Русское название: Правительство
    Русское название в мировом прокате: Borgen
    Создали в: 2010
    Категория жанра: драма
    Главный режиссер: Луиза Фридберг, Йеспер В. Нильсен, Миккель Нёргор
    Актеры: Сидсе Бабетт Кнудсен, Биргитта Йорт Сёренсен, Эмиль Поулсен Дам, Фрея Риманн, Сёрен Маллинг, Томас Левин, Йохан Филип Асбек, Бенедикте Хансен, Микаэль Бирккьяр, Андерс Юль

    Сюжет фильма:
    Сюжет сериала рассказывает о политической борьбе и ее последствиях. Главная героиня 40-летняя лидер популистской партии Биргитте Нюборг одерживает победу на политических выборах и обнаруживает, что все ее проблемы только начинаются.


    Официальный сайт

    Снималось в: Дания
    Киностудия: DR1
    Время просмотра: ~00:58:00 серия
    Перевод текста: Профессиональный (многоголосый, закадровый) Tелевизионное агентство Русский Репортаж по заказу 8 канала

    Файл
    Кодек для видео: XviD / AC3
    Качество фильма: HDRip
    Информация о видео: XviD, 720x320 (2,25:1); ~1280 Kbps; 25,000 fps; ~0,22 bpp
    Информация о звуке:
    Аудио 1: AC3; 192 Kbps; 48 kHz; 2 ch Русский Репортаж (русский)
    Аудио 2: AC3; 192 Kbps; 48 kHz; 2 ch оригинал (датский)

    Скриншоты для ознакомления
    Screenshots
    MediaInfo
    General
    Complete name : D:ВидеоCериалыПравительствоBorgen.s01.8tvBorgen.s01e01.HDRip.Rus.Dan.8tv.avi
    Format : AVI
    Format/Info : Audio Video Interleave
    File size : 701 MiB
    Duration : 58mn 15s
    Overall bit rate : 1 681 Kbps
    Writing application : VirtualDubMod 1.5.10.3 | www.virtualdub-fr.org || (build 2550/release)
    Writing library : VirtualDubMod build 2550/release

    Video
    ID : 0
    Format : MPEG-4 Visual
    Format profile : Advanced Simple@L5
    Format settings, BVOP : 2
    Format settings, QPel : No
    Format settings, GMC : No warppoints
    Format settings, Matrix : Default (MPEG)
    Codec ID : XVID
    Codec ID/Hint : XviD
    Duration : 58mn 15s
    Bit rate : 1 283 Kbps
    Width : 720 pixels
    Height : 320 pixels
    Display aspect ratio : 2.25:1
    Frame rate : 25.000 fps
    Color space : YUV
    Chroma subsampling : 4:2:0
    Bit depth : 8 bits
    Scan type : Progressive
    Compression mode : Lossy
    Bits/(Pixel*Frame) : 0.223
    Stream size : 535 MiB (76%)
    Writing library : XviD 1.2.1 (UTC 2008-12-04)

    Audio #1
    ID : 1
    Format : AC-3
    Format/Info : Audio Coding 3
    Mode extension : CM (complete main)
    Format settings, Endianness : Big
    Codec ID : 2000
    Duration : 58mn 15s
    Bit rate mode : Constant
    Bit rate : 192 Kbps
    Channel count : 2 channels
    Channel positions : Front: L R
    Sampling rate : 48.0 KHz
    Bit depth : 16 bits
    Compression mode : Lossy
    Stream size : 80.0 MiB (11%)
    Alignment : Split accross interleaves
    Interleave, duration : 40 ms (1.00 video frame)
    Interleave, preload duration : 500 ms

    Audio #2
    ID : 2
    Format : AC-3
    Format/Info : Audio Coding 3
    Mode extension : CM (complete main)
    Format settings, Endianness : Big
    Codec ID : 2000
    Duration : 58mn 15s
    Bit rate mode : Constant
    Bit rate : 192 Kbps
    Channel count : 2 channels
    Channel positions : Front: L R
    Sampling rate : 48.0 KHz
    Bit depth : 16 bits
    Compression mode : Lossy
    Stream size : 80.0 MiB (11%)
    Alignment : Split accross interleaves
    Interleave, duration : 40 ms (1.00 video frame)
    Interleave, preload duration : 500 ms

    Размер скачиваемого торрента: 6.84 GB (7342444544 Bytes)

    Правительство / Borgen (2010) HDRip | P скачать через торрент бесплатно
    загрузка...
    Рейтинг →
     (голосов: 1, оценка 4/5, голосовать можно 1 раз )

    Другие торренты по теме:

  • Владимир Путин угрожает распустить правительство (2013) WEBRip
  • Михаил Керенский и группа Временное правительство - Верить и ждать (1992) FLAC скачать через торрент бесплатно
  • Правительство / Borgen (2011) HDRip | P скачать через торрент бесплатно


    • Комментарии (0):

      Информация

      Информация

        Посетители, находящиеся в группе Гости, не могут оставлять комментарии в данной новости.

        ↓ Меню



        ↓ Опрос

        А Вы добавили сайт в закладки?
        Да
        Не


        Top 10 за месяц (Фильмы)