.
Авторизация | Регистрация
Хочешь лучшие торренты? Добавь свой email!
Добавить
» » Необитаемый / Uninhabited (2010) BDRip от New-Team | P, L2 | лицензия торрент скачать бесплатно




    Необитаемый / Uninhabited (2010) BDRip от New-Team | P, L2 | лицензия торрент скачать бесплатно

    Опубликовал: Админ | Дата: 27-02-2015, 11:10 | Просмотров: 236

    Их отпуск мечты превратился в ночной кошмар...



    Снималось в: Австралия / SC Films International, Screen Australia

    Категория жанра: ужасы, триллер
    Создали в: 2010
    Время просмотра: 01:27:24
    Перевод текста: Профессиональный (многоголосый закадровый) + любительский (двухголосый закадровый)
    Субтитры подготовлены: нет
    Оригинальная аудиодорожка: нет

    Главный режиссер: Билл Беннетт / Bill Bennett

    Актеры: Джералдина Хейквилл, Генри Джеймс, Тасиа Залар, Боб Бэйнс, Билли Милионис, Терри Сиурунис

    Сюжет: Молодая пара идет на отдаленный и пустынный коралловый остров для отдыха в кемпинге, но они не подозревают, что на острове обитает призрак, ищущий возмездие…



    Качество фильма: BDRip / BDRemux 1080i + DVD5 R5
    Тип видео: AVI

    Информация о видео: 720x384 (1.85:1), 25.000 fps, XViD ~ 1951 kbps avg, 0.294 bit/pixel
    Информация о звуке 1: 48 kHz, Dolby AC3, 6 ch, 256 kbps, русский Профессиональный
    Информация о звуке 2: 48 kHz, Dolby AC3, 2 ch, 160 kbps, русский Любительский

    Раздача от:
    MediaInfo

    Общее
    Полное имя : Neobitaemyi.2010.P.BDRip_New-Team_by_avproh.avi
    Формат : AVI
    Формат/Информация : Audio Video Interleave
    Размер файла : 1,45 Гбайт
    Продолжительность : 1 ч. 27 м.
    Общий поток : 2381 Кбит/сек
    Программа кодирования : VirtualDubModRus 1.5.10.2 (build 2542/release)
    Библиотека кодирования : VirtualDubMod build 2542/release

    Видео
    Идентификатор : 0
    Формат : MPEG-4 Visual
    Профиль формата : Advanced Simple@L5
    Параметр BVOP формата : 1
    Параметр QPel формата : Нет
    Параметр GMC формата : Без точки перехода
    Параметр матрицы формата : Выборочная
    Идентификатор кодека : XVID
    Идентификатор кодека/Подсказка : XviD
    Продолжительность : 1 ч. 27 м.
    Битрейт : 1951 Кбит/сек
    Ширина : 720 пикселей
    Высота : 384 пикселя
    Соотношение сторон : 1,85:1
    Частота кадров : 23,976 кадра/сек
    Цветовое пространство : YUV
    Субдискретизация насыщенности : 4:2:0
    Битовая глубина : 8 бит
    Тип развёртки : Прогрессивная
    Метод сжатия : С потерями
    Бит/(Пиксели*Кадры) : 0.294
    Размер потока : 1,19 Гбайт (82%)
    Библиотека кодирования : XviD 73

    Аудио #1
    Идентификатор : 1
    Формат : AC-3
    Формат/Информация : Audio Coding 3
    Расширение режима : CM (complete main)
    Параметр Endianness формата : Big
    Идентификатор кодека : 2000
    Продолжительность : 1 ч. 27 м.
    Вид битрейта : Постоянный
    Битрейт : 256 Кбит/сек
    Каналы : 6 каналов
    Расположение каналов : Front: L C R, Side: L R, LFE
    Частота : 48,0 КГц
    Битовая глубина : 16 бит
    Метод сжатия : С потерями
    Размер потока : 160 Мбайт (11%)
    Выравнивание : Разделение по промежуткам
    Продолжительность промежутка : 42 мс. (1,00 видеокадр)
    Время предзагрузки промежутка : 500 мс.

    Аудио #2
    Идентификатор : 2
    Формат : AC-3
    Формат/Информация : Audio Coding 3
    Расширение режима : CM (complete main)
    Параметр Endianness формата : Big
    Идентификатор кодека : 2000
    Продолжительность : 1 ч. 27 м.
    Вид битрейта : Постоянный
    Битрейт : 160 Кбит/сек
    Каналы : 2 канала
    Расположение каналов : Front: L R
    Частота : 48,0 КГц
    Битовая глубина : 16 бит
    Метод сжатия : С потерями
    Размер потока : 100 Мбайт (7%)
    Выравнивание : Разделение по промежуткам
    Продолжительность промежутка : 42 мс. (1,00 видеокадр)
    Время предзагрузки промежутка : 500 мс.

    Скриншоты для ознакомления:



    Залил: avproh
    Размер скачиваемого торрента: 1.45 GB (1560686592 Bytes)

    Необитаемый / Uninhabited (2010) BDRip от New-Team | P, L2 | лицензия торрент скачать бесплатно
    загрузка...
    Рейтинг →
     (голосов: 1, оценка 4/5, голосовать можно 1 раз )

    Другие торренты по теме:

  • Необитаемый / Uninhabited (2010) BDRip-AVC от MediaClub | L2
  • Необитаемый / Uninhabited (2010) Blu-ray Remux 1080i от MediaClub | L2
  • Необитаемый / Uninhabited (2010) BDRip 720p от MediaClub | L2
  • Необитаемый / Uninhabited (2010) BDRip от MediaClub | L2
  • Необитаемый / Uninhabited (2010) DVD5 R5 от New-Team | P | лицензия
  • Необитаемый / Uninhabited (2010) BDRip-AVC от New-Team | P, L2 | лицензия
  • Необитаемый / Uninhabited (2010) BDRip 720p от New-Team | P, L2 | лицензия
  • Необитаемый / Uninhabited (2010) BDRip 1080p от New-Team | P, L2 | лицензия


    • Комментарии (0):

      Информация

      Информация

        Посетители, находящиеся в группе Гости, не могут оставлять комментарии в данной новости.

        ↓ Меню



        ↓ Опрос

        А Вы добавили сайт в закладки?
        Да
        Не


        Top 10 за месяц (Фильмы)