.
Авторизация | Регистрация
» » Исповедь невидимки / Memoirs of an Invisible Man (1992) BDRip от New-Team | P, P2, A торрент скачать бесплатно




    Исповедь невидимки / Memoirs of an Invisible Man (1992) BDRip от New-Team | P, P2, A торрент скачать бесплатно

    Опубликовал: Админ | Дата: 27-02-2015, 11:10 | Просмотров: 193


    Снималось в: США, Франция
    Создали в: Alcor Films, Canal+ fr, Cornelius Productions, Regency Enterprises, Warner Bros. Pictures

    Категория жанра: фантастика, триллер, мелодрама, комедия
    Создали в: 1992
    Время просмотра: 01:39:05

    Перевод текста: Профессиональный (многоголосый закадровый), Профессиональный (двухголосый закадровый), Авторский (одноголосый закадровый) Гаврилов, Королев
    Оригинальная аудиодорожка: английский
    Субтитры подготовлены: русский

    Главный режиссер: Джон Карпентер / John Carpenter

    Актеры:
    Чеви Чейз, Дэрил Ханна, Сэм Нил, Майкл МакКин, Стивен Тоболовски, Джим Нортон, Пэт Скиппер, Пол Перри, Ричард Эпкар, Стив Барр...

    Сюжет:
    В результате взрыва в научной лаборатории главный герой фильма становится невидимым. Это переворачивает всю его жизнь; циничные сотрудники ЦРУ начинают охоту на него, однако с помощью очаровательной подружки ему удается выйти победителем из схватки с негодяями…




    Исходник: BDRemux 1080p
    Тип релиза: BDRip
    Контейнер: AVI

    Информация о видео: 720x304 (2,35:1), 23,976 fps, XviD ~ 1136 kbps avg, 0.217 bit/pixel
    Информация о звуке: 48 kHz, Dolby Digital AC3 2.0, 192 kbps MVO
    Информация о звуке: 48 kHz, Dolby Digital AC3 2.0, 192 kbps DVO
    Информация о звуке: 48 kHz, Dolby Digital AC3 2.0, 192 kbps Гаврилов
    Информация о звуке: 48 kHz, Dolby Digital AC3 2.0, 192 kbps Королев
    Информация о звуке: 48 kHz, Dolby Digital AC3 2.0, 192 kbps Английский
    Субтитры: SoftSub (srt)

    Раздача от:
    MediaInfo

    Общее
    Полное имя : Ispoved.Nevidimki.1992.BDRip_New-team_by_AVP_Studio.avi
    Формат : AVI
    Формат/Информация : Audio Video Interleave
    Размер файла : 1,47 Гбайт
    Продолжительность : 1 ч. 39 м.
    Общий поток : 2125 Кбит/сек
    Программа кодирования : VirtualDubModRus 1.5.10.2 (build 2542/release)
    Библиотека кодирования : VirtualDubMod build 2542/release

    Видео
    Идентификатор : 0
    Формат : MPEG-4 Visual
    Профиль формата : Advanced Simple@L5
    Параметр BVOP формата : 1
    Параметр QPel формата : Нет
    Параметр GMC формата : Без точки перехода
    Параметр матрицы формата : Выборочная
    Идентификатор кодека : XVID
    Идентификатор кодека/Подсказка : XviD
    Продолжительность : 1 ч. 39 м.
    Битрейт : 1136 Кбит/сек
    Ширина : 720 пикселей
    Высота : 304 пикселя
    Соотношение сторон : 2,35:1
    Частота кадров : 23,976 кадра/сек
    Цветовое пространство : YUV
    Субдискретизация насыщенности : 4:2:0
    Битовая глубина : 8 бит
    Тип развёртки : Прогрессивная
    Метод сжатия : С потерями
    Бит/(Пиксели*Кадры) : 0.217
    Размер потока : 805 Мбайт (53%)
    Библиотека кодирования : XviD 73

    Аудио #1
    Идентификатор : 1
    Формат : AC-3
    Формат/Информация : Audio Coding 3
    Профиль формата : Dolby Digital
    Расширение режима : CM (complete main)
    Параметр Endianness формата : Big
    Идентификатор кодека : 2000
    Продолжительность : 1 ч. 39 м.
    Вид битрейта : Постоянный
    Битрейт : 192 Кбит/сек
    Каналы : 2 канала
    Расположение каналов : Front: L R
    Частота : 48,0 КГц
    Битовая глубина : 16 бит
    Метод сжатия : С потерями
    Размер потока : 136 Мбайт (9%)
    Выравнивание : Разделение по промежуткам
    Продолжительность промежутка : 42 мс. (1,00 видеокадр)
    Время предзагрузки промежутка : 500 мс.

    Аудио #2
    Идентификатор : 2
    Формат : AC-3
    Формат/Информация : Audio Coding 3
    Расширение режима : CM (complete main)
    Параметр Endianness формата : Big
    Идентификатор кодека : 2000
    Продолжительность : 1 ч. 39 м.
    Вид битрейта : Постоянный
    Битрейт : 192 Кбит/сек
    Каналы : 2 канала
    Расположение каналов : Front: L R
    Частота : 48,0 КГц
    Битовая глубина : 16 бит
    Метод сжатия : С потерями
    Размер потока : 136 Мбайт (9%)
    Выравнивание : Разделение по промежуткам
    Продолжительность промежутка : 42 мс. (1,00 видеокадр)
    Время предзагрузки промежутка : 500 мс.

    Аудио #3
    Идентификатор : 3
    Формат : AC-3
    Формат/Информация : Audio Coding 3
    Профиль формата : Dolby Digital
    Расширение режима : CM (complete main)
    Параметр Endianness формата : Big
    Идентификатор кодека : 2000
    Продолжительность : 1 ч. 39 м.
    Вид битрейта : Постоянный
    Битрейт : 192 Кбит/сек
    Каналы : 2 канала
    Расположение каналов : Front: L R
    Частота : 48,0 КГц
    Битовая глубина : 16 бит
    Метод сжатия : С потерями
    Размер потока : 136 Мбайт (9%)
    Выравнивание : Разделение по промежуткам
    Продолжительность промежутка : 42 мс. (1,00 видеокадр)
    Время предзагрузки промежутка : 500 мс.

    Аудио #4
    Идентификатор : 4
    Формат : AC-3
    Формат/Информация : Audio Coding 3
    Расширение режима : CM (complete main)
    Параметр Endianness формата : Big
    Идентификатор кодека : 2000
    Продолжительность : 1 ч. 39 м.
    Вид битрейта : Постоянный
    Битрейт : 192 Кбит/сек
    Каналы : 2 канала
    Расположение каналов : Front: L R
    Частота : 48,0 КГц
    Битовая глубина : 16 бит
    Метод сжатия : С потерями
    Размер потока : 136 Мбайт (9%)
    Выравнивание : Разделение по промежуткам
    Продолжительность промежутка : 42 мс. (1,00 видеокадр)
    Время предзагрузки промежутка : 500 мс.

    Аудио #5
    Идентификатор : 5
    Формат : AC-3
    Формат/Информация : Audio Coding 3
    Расширение режима : CM (complete main)
    Параметр Endianness формата : Big
    Идентификатор кодека : 2000
    Продолжительность : 1 ч. 39 м.
    Вид битрейта : Постоянный
    Битрейт : 192 Кбит/сек
    Каналы : 2 канала
    Расположение каналов : Front: L R
    Частота : 48,0 КГц
    Битовая глубина : 16 бит
    Метод сжатия : С потерями
    Размер потока : 136 Мбайт (9%)
    Выравнивание : Разделение по промежуткам
    Продолжительность промежутка : 42 мс. (1,00 видеокадр)
    Время предзагрузки промежутка : 500 мс

    Скриншоты для ознакомления



    Залил: AVPStudio
    Размер скачиваемого торрента: 1.47 GB (1578843761 Bytes)

    Исповедь невидимки / Memoirs of an Invisible Man (1992) BDRip от New-Team | P, P2, A торрент скачать бесплатно
    загрузка...
    Рейтинг →
     (голосов: 1, оценка 5/5, голосовать можно 1 раз )

    Другие торренты по теме:

  • Исповедь невидимки / Memoirs of an Invisible Man (1992) BDRip | P2 торрент скачать бесплатно
  • Исповедь невидимки / Memoirs of an Invisible Man (1992) DVDRip-AVC от Blake торрент скачать бесплатно
  • Исповедь невидимки / Memoirs of an Invisible Man (1992) BDRip-AVC от New-Team | P скачать через торрент бесплатно
  • Исповедь невидимки / Воспоминания человека-невидимки / Memoirs of an Invisible Man (1992) BDRip от HQCLUB торрент скачать бесплатно
  • Исповедь невидимки / Memoirs of an Invisible Man (1992) BDRip-AVC от ExKinoRay скачать торрент бесплатно


    • Комментарии (0):

      Информация

      Информация

        Посетители, находящиеся в группе Гости, не могут оставлять комментарии в данной новости.

        ↓ Меню



        ↓ Опрос

        А Вы добавили сайт в закладки?
        Да
        Не


        Top 10 за неделю (Фильмы)