.
Авторизация | Регистрация
» » 3 дня на убийство / 3 Days to Kill (2014) BDRip 720p | Extended Cut | Чистый звук торрент скачать бесплатно




    3 дня на убийство / 3 Days to Kill (2014) BDRip 720p | Extended Cut | Чистый звук торрент скачать бесплатно

    Опубликовал: Админ | Дата: 27-02-2015, 11:10 | Просмотров: 194



    Детально о кино
    Русское название: 3 дня на убийство
    Русское название в мировом прокате: 3 Days to Kill
    Создали в: 2014
    Категория жанра: боевик, триллер, драма, криминал
    Главный режиссер: МакДжи
    Актеры: Кевин Костнер, Эмбер Хёрд, Хейли Стайнфелд, Конни Нильсен, Томас Лемаркус, Рихард Заммель, Марк Андреони, Бруно Риччи, Йонас Блоке, Эрик Эбони

    Сюжет фильма: В секретной лаборатории ученые разработали препарат, который позволяет человеку справиться с любой неизлечимой болезнью. Руководство спецслужб предлагает принять это лекарство экс-агенту спецслужб Итану Раннеру, которому врачи объявили смертельный диагноз. Но он должен выполнить еще одно задание, которое, впрочем, может стоить ему жизни. Теперь вокруг Раннера начинают происходить странные вещи. Что это — галлюцинации, побочный эффект от таблеток или мир действительно полон ужаса и кошмара?



    Снималось в: США, Франция / Relativity Media, EuropaCorp
    Время просмотра: 02:02:18
    Перевод текста: Профессиональный (полное дублирование) - Чистый звук

    Файл
    Качество фильма: BDRip 720p
    Тип видео: MKV
    Информация о видео: MPEG4/AVC, 1280х536 (2.40:1), 4935 Кбит/сек, 23.976 кадра/сек
    Информация о звуке 1: AC3, 2 канала, 192 Кбит/сек | Чистый звук
    Информация о звуке 2: AC3, 6 каналов, 640 Кбит/сек | Английский
    Субтитры: Русские (форс. - на места без перевода, полные), английские
    Навигация по главам: Есть
    Информация о видеоряд: CHD

    MediaInfo:
    Общее
    Уникальный идентификатор : 171972214475715302017136673138357218062 (0x8160A4CC8BFAD629BB98C9062782AB0E)
    Полное имя : 3 Days to Kill. (2014) EXTENDED BDRip 720p.mkv
    Формат : Matroska
    Версия формата : Version 2
    Размер файла : 4,93 Гбайт
    Продолжительность : 2 ч. 2 м.
    Общий поток : 5768 Кбит/сек
    Название фильма : 3 Days to Kill. 2014. EXTENDED
    Дата кодирования : UTC 2014-05-13 07:54:11
    Программа кодирования : mkvmerge v5.8.0 (;No Sleep / Pillow;) built on Sep 2 2012 15:37:04
    Библиотека кодирования : libebml v1.2.3 + libmatroska v1.3.0

    Видео
    Идентификатор : 1
    Формат : AVC
    Формат/Информация : Advanced Video Codec
    Профиль формата : High@L4.1
    Параметр CABAC формата : Да
    Параметр ReFrames формата : 11 кадров
    Идентификатор кодека : V_MPEG4/ISO/AVC
    Продолжительность : 2 ч. 2 м.
    Битрейт : 4935 Кбит/сек
    Ширина : 1280 пикселей
    Высота : 536 пикселей
    Соотношение сторон : 2,40:1
    Режим частоты кадров : Постоянный
    Частота кадров : 23,976 кадра/сек
    Цветовое пространство : YUV
    Субдискретизация насыщенности : 4:2:0
    Битовая глубина : 8 бит
    Тип развёртки : Прогрессивная
    Бит/(Пиксели*Кадры) : 0.300
    Размер потока : 4,12 Гбайт (84%)
    Заголовок : CHD
    Библиотека кодирования : x264 core 138 r2356 a1d3d17
    Настройки программы : cabac=1 / ref=11 / deblock=1:-3:-3 / analyse=0x3:0x113 / me=umh / subme=10 / psy=1 / psy_rd=1.00:0.05 / mixed_ref=1 / me_range=32 / chroma_me=1 / trellis=2 / 8x8dct=1 / cqm=0 / deadzone=21,11 / fast_pskip=0 / chroma_qp_offset=-2 / threads=18 / lookahead_threads=1 / sliced_threads=0 / nr=0 / decimate=1 / interlaced=0 / bluray_compat=0 / constrained_intra=0 / bframes=4 / b_pyramid=2 / b_adapt=2 / b_bias=0 / direct=3 / weightb=1 / open_gop=0 / weightp=2 / keyint=250 / keyint_min=23 / scenecut=40 / intra_refresh=0 / rc=2pass / mbtree=0 / bitrate=4935 / ratetol=1.0 / qcomp=0.70 / qpmin=0 / qpmax=69 / qpstep=4 / cplxblur=20.0 / qblur=0.5 / ip_ratio=1.40 / pb_ratio=1.30 / aq=2:0.90
    Язык : English
    Default : Да
    Forced : Нет

    Аудио #1
    Идентификатор : 2
    Формат : AC-3
    Формат/Информация : Audio Coding 3
    Расширение режима : CM (complete main)
    Параметр Endianness формата : Big
    Идентификатор кодека : A_AC3
    Продолжительность : 2 ч. 2 м.
    Вид битрейта : Постоянный
    Битрейт : 192 Кбит/сек
    Каналы : 2 канала
    Расположение каналов : Front: L R
    Частота : 48,0 КГц
    Битовая глубина : 16 бит
    Метод сжатия : С потерями
    Размер потока : 168 Мбайт (3%)
    Заголовок : DUB | Чистый звук
    Язык : Russian
    Default : Да
    Forced : Нет

    Аудио #2
    Идентификатор : 3
    Формат : AC-3
    Формат/Информация : Audio Coding 3
    Расширение режима : CM (complete main)
    Параметр Endianness формата : Big
    Идентификатор кодека : A_AC3
    Продолжительность : 2 ч. 2 м.
    Вид битрейта : Постоянный
    Битрейт : 640 Кбит/сек
    Каналы : 6 каналов
    Расположение каналов : Front: L C R, Side: L R, LFE
    Частота : 48,0 КГц
    Битовая глубина : 16 бит
    Метод сжатия : С потерями
    Размер потока : 560 Мбайт (11%)
    Заголовок : Eng
    Язык : English
    Default : Нет
    Forced : Нет

    Текст #1
    Идентификатор : 4
    Формат : UTF-8
    Идентификатор кодека : S_TEXT/UTF8
    Идентификатор кодека/Информация : UTF-8 Plain Text
    Заголовок : forced
    Язык : Russian
    Default : Да
    Forced : Да

    Текст #2
    Идентификатор : 5
    Формат : UTF-8
    Идентификатор кодека : S_TEXT/UTF8
    Идентификатор кодека/Информация : UTF-8 Plain Text
    Заголовок : Full
    Язык : Russian
    Default : Нет
    Forced : Нет

    Текст #3
    Идентификатор : 6
    Формат : UTF-8
    Идентификатор кодека : S_TEXT/UTF8
    Идентификатор кодека/Информация : UTF-8 Plain Text
    Заголовок : Eng
    Язык : English
    Default : Нет
    Forced : Нет

    Меню
    00:00:00.000 : en:00:00:00.000
    00:03:35.132 : en:00:03:35.132
    00:06:58.543 : en:00:06:58.543
    00:10:56.573 : en:00:10:56.573
    00:16:00.710 : en:00:16:00.710
    00:20:51.709 : en:00:20:51.709
    00:25:05.963 : en:00:25:05.963
    00:29:24.346 : en:00:29:24.346
    00:34:20.392 : en:00:34:20.392
    00:37:46.806 : en:00:37:46.806
    00:40:27.300 : en:00:40:27.300
    00:44:05.226 : en:00:44:05.226
    00:49:24.795 : en:00:49:24.795
    00:53:16.443 : en:00:53:16.443
    00:57:40.874 : en:00:57:40.874
    01:08:28.396 : en:01:08:28.396
    01:13:37.621 : en:01:13:37.621
    01:19:51.828 : en:01:19:51.828
    01:25:59.070 : en:01:25:59.070
    01:32:28.167 : en:01:32:28.167
    01:39:10.569 : en:01:39:10.569
    01:42:49.413 : en:01:42:49.413
    01:51:49.452 : en:01:51:49.452
    01:54:55.597 : en:01:54:55.597

    Скриншоты для ознакомления:


    Релиз подготовил:
    Размер скачиваемого торрента: 4.93 GB (5291597108 Bytes)

    3 дня на убийство / 3 Days to Kill (2014) BDRip 720p | Extended Cut | Чистый звук торрент скачать бесплатно
    загрузка...
    Рейтинг →
     (голосов: 1, оценка 3/5, голосовать можно 1 раз )

    Другие торренты по теме:

  • Средь бела дня / The Cold Light of Day (2012) HDRip-AVC торрент скачать бесплатно
  • Клуб выходного дня / Клуб Завтрак / The Breakfast Club (1985) BDRip-AVC | L1 торрент скачать бесплатно
  • Цикада восьмого дня / Youkame no semi / Rebirth (2011) DVDRip | L2 торрент скачать бесплатно
  • Три дня на побег / The Next Three Days (2010) HDRip-AVC торрент скачать бесплатно
  • Замуж на 2 дня / Un plan parfait (2012) BDRip 720p торрент скачать бесплатно
  • Книга судного дня / Doomsday Book / Inlyumyeolmangbogoseo (2012) BDRip | L2 торрент скачать бесплатно
  • В конце дня / Am Ende des Tages (2011) SATRip от RG MixTorrent | P2 торрент скачать бесплатно
  • Два дня в Париже / 2 Days in Paris (2007) BDRip от Rulya74 торрент скачать бесплатно


    • Комментарии (0):

      Информация

      Информация

        Посетители, находящиеся в группе Гости, не могут оставлять комментарии в данной новости.

        ↓ Меню



        ↓ Опрос

        А Вы добавили сайт в закладки?
        Да
        Не


        Top 10 за неделю (Фильмы)