.
Авторизация | Регистрация
» » Джек Райан: Теория хаоса / Jack Ryan: Shadow Recruit (2014) BDRemux | iTunes торрент скачать бесплатно




    Джек Райан: Теория хаоса / Jack Ryan: Shadow Recruit (2014) BDRemux | iTunes торрент скачать бесплатно

    Опубликовал: Админ | Дата: 27-02-2015, 11:10 | Просмотров: 204



    Детально о кино
    Русское название: Джек Райан: Теория хаоса
    Русское название в мировом прокате: Jack Ryan: Shadow Recruit
    Создали в: 2014
    Категория жанра: боевик, триллер, драма
    Главный режиссер: Кеннет Брэна
    Актеры: Крис Пайн, Кира Найтли, Кевин Костнер, Кеннет Брэна, Алек Утгофф, Джемма Чан, Петер Андерссон, Елена Великанова, Нонсо Анози, Колм Фиор

    Сюжет фильма: Являющийся финансовым аналитиком Райан переезжает в Москву для работы на некоего миллиардера. И именно этот нувориш обставит дела таким образом, чтобы на Райна пали все подозрения в организации террористического сговора с целью обрушить экономику США. И Джеку не остается ничего иного, как попытаться одновременно очистить свое имя, обезвредить заговор и спасти жену, взятую миллиардером в заложники.



    Снималось в: США, Россия / Paramount Pictures, Skydance Productions, Mace Neufeld Productions
    Время просмотра: 01:45:32
    Тип перевода: Дублированное iTunes

    Файл
    Тип видео: MKV
    Качество фильма: BDRemux
    Информация о видео: MPEG-4 AVC, 29655 Кбит/с, 1920x1080
    Информация о звуке: Русский (AC3, 6 ch, 384 Кбит/с), английский (DTS-HD MA, 8 ch, 5214 Кбит/с), (AC3, 6 ch, 640 Кбит/с)
    Размер скачиваемого торрента: 26.31 ГБ
    Субтитры: Английские
    Media Info
    Полное имя : D:Джек.Райан.Теория.хаоса-Jack.Ryan.Shadow.Recruit.(2014).BDRemux.1080p.mkv
    Формат : Matroska
    Версия формата : Version 2
    Размер файла : 26,3 Гбайт
    Продолжительность : 1 ч. 45 м.
    Режим общего битрейта : Переменный
    Общий поток : 35,7 Мбит/сек
    Название фильма : Jack Ryan: Shadow Recruit (2014) / Lelya_K for NNM-Club
    Дата кодирования : UTC 2014-05-12 20:50:11
    Программа кодирования : mkvmerge v5.7.0 (;The Whirlwind;) built on Aug 7 2012 14:11:40
    Библиотека кодирования : libebml v1.2.3 + libmatroska v1.3.0
    Attachment : Yes

    Видео
    Идентификатор : 1
    Формат : AVC
    Формат/Информация : Advanced Video Codec
    Профиль формата : High@L4.1
    Параметр CABAC формата : Да
    Параметр ReFrames формата : 4 кадра
    Идентификатор кодека : V_MPEG4/ISO/AVC
    Продолжительность : 1 ч. 45 м.
    Вид битрейта : Переменный
    Битрейт : 32,0 Мбит/сек
    Ширина : 1920 пикселей
    Высота : 1080 пикселей
    Соотношение сторон : 16:9
    Режим частоты кадров : Постоянный
    Частота кадров : 23,976 кадра/сек
    Цветовое пространство : YUV
    Субдискретизация насыщенности : 4:2:0
    Битовая глубина : 8 бит
    Тип развёртки : Прогрессивная
    Бит/(Пиксели*Кадры) : 0.644
    Размер потока : 23,7 Гбайт (90%)
    Заголовок : Джек.Райан.Теория.хаоса-Jack.Ryan.Shadow.Recruit.(2014).BDRemux.1080p
    Язык : English
    Default : Да
    Forced : Нет

    Аудио #1
    Идентификатор : 2
    Формат : AC-3
    Формат/Информация : Audio Coding 3
    Расширение режима : CM (complete main)
    Параметр Endianness формата : Big
    Идентификатор кодека : A_AC3
    Продолжительность : 1 ч. 45 м.
    Вид битрейта : Постоянный
    Битрейт : 384 Кбит/сек
    Каналы : 6 каналов
    Расположение каналов : Front: L C R, Side: L R, LFE
    Частота : 48,0 КГц
    Битовая глубина : 16 бит
    Метод сжатия : С потерями
    Размер потока : 290 Мбайт (1%)
    Заголовок : AC3 5.1 / 384 kbps / Dub (iTunes)
    Язык : Russian
    Default : Да
    Forced : Нет

    Аудио #2
    Идентификатор : 3
    Формат : DTS
    Формат/Информация : Digital Theater Systems
    Профиль формата : MA / Core
    Идентификатор кодека : A_DTS
    Продолжительность : 1 ч. 45 м.
    Вид битрейта : Переменный
    Битрейт : 1606 Кбит/сек / 1510 Кбит/сек
    Каналы : 8 каналов / 6 каналов
    Расположение каналов : Front: L C R, Side: L R, Back: L R, LFE / Front: L C R, Side: L R, LFE
    Частота : 48,0 КГц
    Битовая глубина : 24 бит
    Метод сжатия : Без потерь / Lossy
    Заголовок : DTS-HD MA 7.1 / 5214 kbps / Original
    Язык : English
    Default : Нет
    Forced : Нет

    Аудио #3
    Идентификатор : 4
    Формат : AC-3
    Формат/Информация : Audio Coding 3
    Расширение режима : CM (complete main)
    Параметр Endianness формата : Big
    Идентификатор кодека : A_AC3
    Продолжительность : 1 ч. 45 м.
    Вид битрейта : Постоянный
    Битрейт : 640 Кбит/сек
    Каналы : 6 каналов
    Расположение каналов : Front: L C R, Side: L R, LFE
    Частота : 48,0 КГц
    Битовая глубина : 16 бит
    Метод сжатия : С потерями
    Размер потока : 483 Мбайт (2%)
    Заголовок : AC3 5.1 / 640 kbps / Deive
    Язык : English
    Default : Нет
    Forced : Нет

    Аудио #4
    Идентификатор : 5
    Формат : AC-3
    Формат/Информация : Audio Coding 3
    Расширение режима : CM (complete main)
    Параметр Endianness формата : Big
    Идентификатор кодека : A_AC3
    Продолжительность : 1 ч. 45 м.
    Вид битрейта : Постоянный
    Битрейт : 224 Кбит/сек
    Каналы : 2 канала
    Расположение каналов : Front: L R
    Частота : 48,0 КГц
    Битовая глубина : 16 бит
    Метод сжатия : С потерями
    Размер потока : 169 Мбайт (1%)
    Заголовок : AC3 2.0 / 224 kbps / Commentary
    Язык : English
    Default : Нет
    Forced : Нет

    Текст #1
    Идентификатор : 6
    Формат : UTF-8
    Идентификатор кодека : S_TEXT/UTF8
    Идентификатор кодека/Информация : UTF-8 Plain Text
    Заголовок : Forced
    Язык : English
    Default : Нет
    Forced : Нет

    Текст #2
    Идентификатор : 7
    Формат : UTF-8
    Идентификатор кодека : S_TEXT/UTF8
    Идентификатор кодека/Информация : UTF-8 Plain Text
    Заголовок : Full
    Язык : English
    Default : Нет
    Forced : Нет

    Текст #3
    Идентификатор : 8
    Формат : UTF-8
    Идентификатор кодека : S_TEXT/UTF8
    Идентификатор кодека/Информация : UTF-8 Plain Text
    Заголовок : SDH
    Язык : English
    Default : Нет
    Forced : Нет

    Меню
    00:00:00.000 : en:Chapter 1
    00:05:45.470 : en:Chapter 2
    00:12:02.471 : en:Chapter 3
    00:18:11.006 : en:Chapter 4
    00:23:38.792 : en:Chapter 5
    00:31:19.794 : en:Chapter 6
    00:40:26.298 : en:Chapter 7
    00:48:47.466 : en:Chapter 8
    00:57:28.069 : en:Chapter 9
    01:06:19.642 : en:Chapter 10
    01:13:07.466 : en:Chapter 11
    01:21:53.867 : en:Chapter 12
    01:27:07.096 : en:Chapter 13
    01:35:21.507 : en:Chapter 14
    01:38:55.054 : en:Chapter 15

    Скриншоты для ознакомления


    Залил: ~Relizer~
    Размер скачиваемого торрента: 26.31 GB (28253053611 Bytes)

    Джек Райан: Теория хаоса / Jack Ryan: Shadow Recruit (2014) BDRemux | iTunes торрент скачать бесплатно
    загрузка...
    Рейтинг →
     (голосов: 1, оценка 5/5, голосовать можно 1 раз )

    Другие торренты по теме:

  • Джек Райан: Теория хаоса / Jack Ryan: Shadow Recruit (2013) HD 1080p | L1 | Трейлер торрент скачать бесплатно
  • Джек Райан: Теория хаоса (2014) торрент скачать бесплатно
  • Джек Райан: Теория хаоса / Jack Ryan: Shadow Recruit (2014) CAMRip торрент скачать бесплатно
  • OST - Джек Райан: Теория хаоса / Jack Ryan: Shadow Recruit (2014) MP3 торрент скачать бесплатно
  • Джек Райан: Теория хаоса / Jack Ryan: Shadow Recruit (2014) CAMRip *PROPER* | Звук с TS торрент скачать бесплатно
  • Джек Райан: Теория хаоса / Jack Ryan: Shadow Recruit (2014) HDRip-AVC от ExKinoRay | Чистый звук скачать через торрент бесплатно
  • Джек Райан: Теория хаоса / Jack Ryan: Shadow Recruit (2014) HDRip от Scarabey | Чистый звук скачать через торрент бесплатно
  • Джек Райан: Теория хаоса / Jack Ryan: Shadow Recruit (2014) BDRip 1080p | Чистый звук скачать через торрент бесплатно


    • Комментарии (0):

      Информация

      Информация

        Посетители, находящиеся в группе Гости, не могут оставлять комментарии в данной новости.

        ↓ Меню



        ↓ Опрос

        А Вы добавили сайт в закладки?
        Да
        Не


        Top 10 за неделю (Фильмы)