.
Авторизация | Регистрация
» » Двойной КОПец / Cop Out (2010) BDRip 1080p by msltel | D, A, L1 торрент скачать бесплатно




    Двойной КОПец / Cop Out (2010) BDRip 1080p by msltel | D, A, L1 торрент скачать бесплатно

    Опубликовал: Админ | Дата: 27-02-2015, 11:10 | Просмотров: 239



    Русское название: Двойной КОПец
    Русское название в мировом прокате: Cop Out
    Создали в: 2010
    Категория жанра: Боевик, комедия, криминал
    Снималось в: США, Warner Bros. Pictures
    Главный режиссер: Кевин Смит
    Актеры: Брюс Уиллис, Трэйси Морган, Адам Броди, Шонн Уильям Скотт, Мишель Трахтенберг, Джейсон Ли, Кевин Поллак, Марк Консуэлос, Гильермо Диаз, Эдриэн Мартинес, Ана де ла Регера

    Сюжет фильма: История двух давних напарников — нью-йоркских полицейских, занятых поисками очень редкой и чертовски дорогой бейсбольной карточки, украденной у одного из них. Они вынуждены противостоять беспощадному гангстеру, просто помешанному на коллекционных вещицах. Джимми, всю жизнь проработавший в полиции, возлагал на пропавшую карточку все свои надежды, так как только с помощью неё он мог бы оплатить предстоящую свадьбу дочери, а Пол, его, так называемый, напарник в борьбе с преступностью, столь зацикливается на предполагаемой неверности своей жены, что ему становится уже непросто отслеживать пропажу...

    Качество фильма: BDRip 1080p
    Размер скачиваемого торрента: 13.05 ГБ
    Время просмотра: 01:47:30

    Информация о видео: MPEG-4 AVC, 10 Mбит/с, 1920x800
    Информация о звуке 1: русский, 48 kHz, AC3, 6 ch, 384 kbps avg, Дублированный
    Информация о звуке 2: русский, 48 kHz, DTS, 6 ch, 1509 kbps avg, Авторский, Андрей Гаврилов
    Информация о звуке 3: русский, 48 kHz, DTS, 6 ch, 1509 kbps avg, Авторский, Юрий Немахов
    Информация о звуке 4: русский, 48 kHz, AC3, 2 ch, 224 kbps avg, Авторский, Дмитрий Пучков - Гоблин *Качество звука - низкое.

    Внешние файлы
    Информация о звуке: русский, 48 kHz, AC3, 6 ch, 448 kbps avg, Авторский, Андрей Гаврилов
    Информация о звуке: русский, 48 kHz, AC3, 6 ch, 448 kbps avg, Авторский, Юрий Немахов
    Информация о звуке: русский, 48 kHz, AC3, 6 ch, 384 kbps avg, Любительский, С. Ловаситов
    Информация о звуке: русский, 48 kHz, MP3, 2 ch, 192 kbps avg, Любительский, Den904, по субтитрам Гоблина
    Информация о звуке: русский, 48 kHz, AC3, 6 ch, 448 kbps avg, Любительский, seqw0
    Информация о звуке: английский, 48 kHz, DTS, 6 ch, 1509 kbps avg, Оригинал
    Субтитры: русские, R5
    Субтитры: русские, Гоблин
    Субтитры: русские, seqw0
    Субтитры: английские
    Субтитры: французские

    Авторские, любительские переводы и сабы (кроме R5) - с ненормативной лексикой.

    Имеются поименованные главы/чаптеры.

    Исходник: morov (HDtracker)

    Сравнение с исходником



    MediaInfo + Лог х264
    Общее
    Полное имя : D:VideoDvojnoj KOPec.2010.x264.BDRip.1080pDvojnoj KOPec.2010.AVO.rus.А.Гаврилов.ac3
    Формат : AC-3
    Формат/Информация : Audio Coding 3
    Размер файла : 344 Мбайт
    Продолжительность : 1 ч. 47 м.
    Режим общего битрейта : Постоянный
    Общий поток : 448 Кбит/сек

    Аудио
    Формат : AC-3
    Формат/Информация : Audio Coding 3
    Расширение режима : CM (complete main)
    Параметр Endianness формата : Big
    Продолжительность : 1 ч. 47 м.
    Вид битрейта : Постоянный
    Битрейт : 448 Кбит/сек
    Каналы : 6 каналов
    Расположение каналов : Front: L C R, Side: L R, LFE
    Частота : 48,0 КГц
    Битовая глубина : 16 бит
    Метод сжатия : С потерями
    Размер потока : 344 Мбайт (100%)

    Общее
    Полное имя : D:VideoDvojnoj KOPec.2010.x264.BDRip.1080pDvojnoj KOPec.2010.AVO.rus.Ю.Немахов.ac3
    Формат : AC-3
    Формат/Информация : Audio Coding 3
    Размер файла : 344 Мбайт
    Продолжительность : 1 ч. 47 м.
    Режим общего битрейта : Постоянный
    Общий поток : 448 Кбит/сек

    Аудио
    Формат : AC-3
    Формат/Информация : Audio Coding 3
    Расширение режима : CM (complete main)
    Параметр Endianness формата : Big
    Продолжительность : 1 ч. 47 м.
    Вид битрейта : Постоянный
    Битрейт : 448 Кбит/сек
    Каналы : 6 каналов
    Расположение каналов : Front: L C R, Side: L R, LFE
    Частота : 48,0 КГц
    Битовая глубина : 16 бит
    Метод сжатия : С потерями
    Размер потока : 344 Мбайт (100%)

    Общее
    Полное имя : D:VideoDvojnoj KOPec.2010.x264.BDRip.1080pDvojnoj KOPec.2010.eng.srt
    Формат : SubRip
    Размер файла : 119 Кбайт

    Текст
    Формат : SubRip
    Метод сжатия : Без потерь

    Общее
    Полное имя : D:VideoDvojnoj KOPec.2010.x264.BDRip.1080pDvojnoj KOPec.2010.fre.srt
    Формат : SubRip
    Размер файла : 103 Кбайт

    Текст
    Формат : SubRip
    Метод сжатия : Без потерь

    Общее
    Полное имя : D:VideoDvojnoj KOPec.2010.x264.BDRip.1080pDvojnoj KOPec.2010.Original.eng.dts
    Формат : DTS
    Формат/Информация : Digital Theater Systems
    Размер файла : 1,13 Гбайт
    Продолжительность : 1 ч. 47 м.
    Режим общего битрейта : Постоянный
    Общий поток : 1509 Кбит/сек

    Аудио
    Формат : DTS
    Формат/Информация : Digital Theater Systems
    Режим : 16
    Параметр Endianness формата : Big
    Продолжительность : 1 ч. 47 м.
    Вид битрейта : Постоянный
    Битрейт : 1509 Кбит/сек
    Каналы : 6 каналов
    Расположение каналов : Front: L C R, Side: L R, LFE
    Частота : 48,0 КГц
    Битовая глубина : 16 бит
    Метод сжатия : С потерями
    Размер потока : 1,13 Гбайт (100%)

    Общее
    Полное имя : D:VideoDvojnoj KOPec.2010.x264.BDRip.1080pDvojnoj KOPec.2010.rus.R5.srt
    Формат : SubRip
    Размер файла : 99,9 Кбайт

    Текст
    Формат : SubRip
    Метод сжатия : Без потерь

    Общее
    Полное имя : D:VideoDvojnoj KOPec.2010.x264.BDRip.1080pDvojnoj KOPec.2010.rus.seqw0.srt
    Формат : SubRip
    Размер файла : 150 Кбайт

    Текст
    Формат : SubRip
    Метод сжатия : Без потерь

    Общее
    Полное имя : D:VideoDvojnoj KOPec.2010.x264.BDRip.1080pDvojnoj KOPec.2010.rus.Гоблин.srt
    Формат : SubRip
    Размер файла : 148 Кбайт

    Текст
    Формат : SubRip
    Метод сжатия : Без потерь

    Общее
    Полное имя : D:VideoDvojnoj KOPec.2010.x264.BDRip.1080pDvojnoj KOPec.2010.VO.rus.Den904, любительский, по сабам Гоблина.mp3
    Формат : MPEG Audio
    Размер файла : 148 Мбайт
    Продолжительность : 1 ч. 47 м.
    Режим общего битрейта : Постоянный
    Общий поток : 192 Кбит/сек
    Библиотека кодирования : LAME3.96

    Аудио
    Формат : MPEG Audio
    Версия формата : Version 1
    Профиль формата : Layer 3
    Режим : Joint stereo
    Расширение режима : MS Stereo
    Продолжительность : 1 ч. 47 м.
    Вид битрейта : Постоянный
    Битрейт : 192 Кбит/сек
    Каналы : 2 канала
    Частота : 48,0 КГц
    Метод сжатия : С потерями
    Размер потока : 148 Мбайт (100%)
    Библиотека кодирования : LAME3.96

    Общее
    Полное имя : D:VideoDvojnoj KOPec.2010.x264.BDRip.1080pDvojnoj KOPec.2010.VO.rus.seqw0, любительский.ac3
    Формат : AC-3
    Формат/Информация : Audio Coding 3
    Размер файла : 344 Мбайт
    Продолжительность : 1 ч. 47 м.
    Режим общего битрейта : Постоянный
    Общий поток : 448 Кбит/сек

    Аудио
    Формат : AC-3
    Формат/Информация : Audio Coding 3
    Расширение режима : CM (complete main)
    Параметр Endianness формата : Big
    Продолжительность : 1 ч. 47 м.
    Вид битрейта : Постоянный
    Битрейт : 448 Кбит/сек
    Каналы : 6 каналов
    Расположение каналов : Front: L C R, Side: L R, LFE
    Частота : 48,0 КГц
    Битовая глубина : 16 бит
    Метод сжатия : С потерями
    Размер потока : 344 Мбайт (100%)

    Общее
    Полное имя : D:VideoDvojnoj KOPec.2010.x264.BDRip.1080pDvojnoj KOPec.2010.VO.rus.С.Ловаситов, любительский.ac3
    Формат : AC-3
    Формат/Информация : Audio Coding 3
    Размер файла : 295 Мбайт
    Продолжительность : 1 ч. 47 м.
    Режим общего битрейта : Постоянный
    Общий поток : 384 Кбит/сек

    Аудио
    Формат : AC-3
    Формат/Информация : Audio Coding 3
    Расширение режима : CM (complete main)
    Параметр Endianness формата : Big
    Продолжительность : 1 ч. 47 м.
    Вид битрейта : Постоянный
    Битрейт : 384 Кбит/сек
    Каналы : 6 каналов
    Расположение каналов : Front: L C R, Side: L R, LFE
    Частота : 48,0 КГц
    Битовая глубина : 16 бит
    Метод сжатия : С потерями
    Размер потока : 295 Мбайт (100%)

    Общее
    Уникальный идентификатор : 218080425234584559316774513763663307271 (0xA410C31A95A868EB86CD2F65739D6207)
    Полное имя : D:VideoDvojnoj KOPec.2010.x264.BDRip.1080pDvojnoj KOPec.2010.x264.BDRip.1080p.mkv
    Формат : Matroska
    Версия формата : Version 4 / Version 2
    Размер файла : 10,5 Гбайт
    Продолжительность : 1 ч. 47 м.
    Общий поток : 13,9 Мбит/сек
    Дата кодирования : UTC 2014-05-13 02:18:49
    Программа кодирования : mkvmerge v6.9.1 (;Blue Panther;) 64bit built on Apr 18 2014 18:23:38
    Библиотека кодирования : libebml v1.3.0 + libmatroska v1.4.1

    Видео
    Идентификатор : 1
    Формат : AVC
    Формат/Информация : Advanced Video Codec
    Профиль формата : High@L4.1
    Параметр CABAC формата : Да
    Параметр ReFrames формата : 4 кадра
    Идентификатор кодека : V_MPEG4/ISO/AVC
    Продолжительность : 1 ч. 47 м.
    Битрейт : 10,0 Мбит/сек
    Ширина : 1920 пикселей
    Высота : 800 пикселей
    Соотношение сторон : 2,40:1
    Режим частоты кадров : Постоянный
    Частота кадров : 23,976 кадра/сек
    Цветовое пространство : YUV
    Субдискретизация насыщенности : 4:2:0
    Битовая глубина : 8 бит
    Тип развёртки : Прогрессивная
    Бит/(Пиксели*Кадры) : 0.273
    Размер потока : 7,54 Гбайт (72%)
    Заголовок : BDRip -- STarankov
    Библиотека кодирования : x264 core 138 r2358 9e941d1
    Залил: msltel
    Размер скачиваемого торрента: 13.05 GB (14008307199 Bytes)


    Двойной КОПец / Cop Out (2010) BDRip 1080p by msltel | D, A, L1 торрент скачать бесплатно
    загрузка...
    Рейтинг →
     (голосов: 1, оценка 5/5, голосовать можно 1 раз )

    Другие торренты по теме:



      Комментарии (0):

      Информация

      Информация

        Посетители, находящиеся в группе Гости, не могут оставлять комментарии в данной новости.

        ↓ Меню



        ↓ Опрос

        А Вы добавили сайт в закладки?
        Да
        Не


        Top 10 за неделю (Фильмы)