.
Авторизация | Регистрация
Хочешь лучшие торренты? Добавь свой email!
Добавить
» » Боевик Джексон / Action Jackson (1988) BDRip-AVC | iPad | D скачать через торрент бесплатно




    Боевик Джексон / Action Jackson (1988) BDRip-AVC | iPad | D скачать через торрент бесплатно

    Опубликовал: Админ | Дата: 27-02-2015, 11:10 | Просмотров: 368



    Боевик Джексон / Action Jackson (1988) BDRip-AVC | iPad | D
    NAME: Jericho Jackson NICKNAME: ;Action; HOME: Detroit PROFESSION: Cop EDUCATION: Harvard Law HOBBY: Fighting Crime WEAPON: You;re looking at ;em

    Русское название: Боевик Джексон
    Русское название в мировом прокате: Action Jackson
    Создали в: 1988
    Категория жанра: боевик, триллер, комедия, криминал
    Главный режиссер: Крэйг Р. Бэксли
    Актеры: Карл Уэзерс, Крэйг Т. Нельсон, Вэнити, Шэрон Стоун, Томас Ф. Уилсон, Билл Дьюк, Роберт Дави, Джек Тибо, Роджер Аарон Браун, Стэн Фостер

    Сюжет фильма:
    Сержант полиции Джексон, по прозвищу Боевик, бросает вызов жестоким убийцам, состоящим на службе у безжалостного автомагната, который рассчитывает путем убийств расчистить себе дорогу к политической власти.
    Преследуемый своими же коллегами-полицейскими по сфабрикованному обвинению, Джексон предпринимает отчаянную попытку разоблачения...



    Снималось в: США
    Киностудия: Lorimar Film Entertainment, Silver Pictures

    Время просмотра: 01:35:58
    Перевод текста: Русский дублированный

    Файл
    Кодек для видео: H.264
    Качество фильма: BDRip 576p
    Информация о видео: 1024x560 (1.85:1) at 23.976 fps, AVC at 3400 kbps
    Информация о звуке:
    1: АAС 2.0 160 kbps - Русский дублированный
    2: АAС 2.0 150 kbps - Английский
    Субтитры: отсутствуют

    MI

    General
    Complete name : C:CREATE264mod1outAction.Jackson.1988.576p.D.m4v
    Format : MPEG-4
    Codec ID : M4V
    File size : 2.56 GiB
    Duration : 1h 35mn
    Overall bit rate mode : Variable
    Overall bit rate : 3 815 Kbps
    Movie name : Боевик Джексон
    Performer : Craig R. Baxley
    Genre : Action Adventure
    ContentType : Short Film
    Deion : Сержант полиции Джексон, по прозвищу Боевик, бросает вызов жестоким убийцам, состоящим на службе у безжалостного автомагната, который рассчитывает путем убийств расчистить себе дорогу к политической власти.
    Recorded date : UTC 1988-02-12 08:00:00
    Encoded date : UTC 2014-05-13 18:49:58
    Tagged date : UTC 2014-05-13 19:13:20
    Copyright : Lorimar Film Entertainment, Silver Pictures
    Cover : Yes
    Comment : NAME: Jericho Jackson NICKNAME: ;Action; HOME: Detroit PROFESSION: Cop EDUCATION: Harvard Law HOBBY: Fighting Crime WEAPON: You;re looking at ;em
    ContentRating : mpaa|R|400|

    Title/Sort : Action Jackson
    LongDeion : Сержант полиции Джексон, по прозвищу Боевик, бросает вызов жестоким убийцам, состоящим на службе у безжалостного автомагната, который рассчитывает путем убийств расчистить себе дорогу к политической власти.Преследуемый своими же коллегами-полицейскими по сфабрикованному обвинению, Джексон предпринимает отчаянную попытку разоблачения…
    AppleStoreCatalogID : 271781116
    Vendor : Apple:vendor_id:1988-2444

    Video
    ID : 1
    Format : AVC
    Format/Info : Advanced Video Codec
    Format profile : High@L4.1
    Format settings, CABAC : Yes
    Format settings, ReFrames : 12 frames
    Codec ID : avc1
    Codec ID/Info : Advanced Video Coding
    Duration : 1h 35mn
    Bit rate : 3 487 Kbps
    Maximum bit rate : 13.3 Mbps
    Width : 1 024 pixels
    Height : 560 pixels
    Display aspect ratio : 1.85:1
    Frame rate mode : Constant
    Frame rate : 23.976 fps
    Color space : YUV
    Chroma subsampling : 4:2:0
    Bit depth : 8 bits
    Scan type : Progressive
    Bits/(Pixel*Frame) : 0.254
    Stream size : 2.34 GiB (91%)
    Title : Action.Jackson.1988
    Language : English
    Encoded date : UTC 2014-05-13 18:49:58
    Tagged date : UTC 2014-05-13 18:50:11

    Audio #1
    ID : 2
    Format : AAC
    Format/Info : Advanced Audio Codec
    Format profile : LC
    Codec ID : 40
    Duration : 1h 35mn
    Bit rate mode : Variable
    Bit rate : 164 Kbps
    Maximum bit rate : 209 Kbps
    Channel(s) : 2 channels
    Channel positions : Front: L R
    Sampling rate : 48.0 KHz
    Compression mode : Lossy
    Stream size : 112 MiB (4%)
    Title : DUB
    Language : Russian
    Encoded date : UTC 2014-05-13 18:45:28
    Tagged date : UTC 2014-05-13 18:50:11

    Audio #2
    ID : 3
    Format : AAC
    Format/Info : Advanced Audio Codec
    Format profile : LC
    Codec ID : 40
    Duration : 1h 35mn
    Bit rate mode : Variable
    Bit rate : 153 Kbps
    Maximum bit rate : 176 Kbps
    Channel(s) : 2 channels
    Channel positions : Front: L R
    Sampling rate : 48.0 KHz
    Compression mode : Lossy
    Stream size : 105 MiB (4%)
    Title : Original
    Language : English
    Encoded date : UTC 2014-05-13 18:48:10
    Tagged date : UTC 2014-05-13 18:50:11

    Menu
    ID : 4
    Codec ID : text
    Duration : 1h 35mn
    Encoded date : UTC 2014-05-13 18:50:42
    Tagged date : UTC 2014-05-13 18:50:42
    Bit rate mode : CBR
    x264

    x264 info: frame I:876 Avg QP:15.53 size: 77218
    x264 info: frame P:31235 Avg QP:19.75 size: 32509
    x264 info: frame B:105943 Avg QP:21.03 size: 13466
    x264 info: consecutive B-frames: 2.2% 2.8% 8.5% 20.6% 24.7% 38.6% 1.7% 0.6% 0.1% 0.0% 0.0% 0.0% 0.0% 0.0% 0.1%
    x264 info: mb I I16..4: 14.2% 63.7% 22.1%
    x264 info: mb P I16..4: 1.1% 15.0% 1.5% P16..4: 30.6% 35.4% 9.1% 1.6% 0.2% skip: 5.4%
    x264 info: mb B I16..4: 0.1% 3.0% 0.1% B16..8: 38.6% 18.4% 2.6% direct: 6.5% skip:30.6% L0:40.2% L1:46.0% BI:13.8%
    x264 info: 8x8 transform intra:86.1% inter:54.9%
    x264 info: coded y,uvDC,uvAC intra: 92.6% 69.7% 35.2% inter: 28.8% 16.4% 3.3%
    x264 info: i16 v,h,dc,p: 10% 12% 5% 72%
    x264 info: i8 v,h,dc,ddl,ddr,vr,hd,vl,hu: 9% 8% 10% 10% 14% 13% 12% 12% 12%
    x264 info: i4 v,h,dc,ddl,ddr,vr,hd,vl,hu: 9% 9% 5% 10% 15% 15% 13% 12% 13%
    x264 info: i8c dc,h,v,p: 28% 30% 21% 21%
    x264 info: Weighted P-Frames: Y:4.0% UV:2.5%
    x264 info: ref P L0: 53.8% 8.8% 15.1% 6.5% 4.5% 3.3% 2.5% 1.4% 1.2% 1.0% 0.9% 0.9% 0.1% 0.0%
    x264 info: ref B L0: 87.2% 5.8% 2.8% 1.3% 0.9% 0.7% 0.5% 0.3% 0.2% 0.2% 0.1%
    x264 info: ref B L1: 95.9% 4.1%
    x264 info: kb/s:3486.87
    iTunes tags


    Sort Name: Action Jackson
    XID: Apple:vendor_id:1988-2444
    Content ID: 271781116
    Copyright: Lorimar Film Entertainment, Silver Pictures
    ScreenWriters: Роберт Рено
    Producers: Стив Перри, Джоэл Силвер
    Director: Крэйг Р. Бэксли
    Cast: Карл Уэзерс, Крэйг Т. Нельсон, Вэнити, Шэрон Стоун, Томас Ф. Уилсон, Билл Дьюк, Роберт Дави, Джек Тибо, Роджер Аарон Браун, Стэн Фостер // Carl Weathers (Sgt. Jericho ;Action; Jackson), Craig T. Nelson (Peter Dellaplane), Vanity (Sydney Ash), Sharon Stone (Patrice Dellaplane), Thomas F. Wilson (Officer Kornblau), Robert Davi (Tony Moretti), Bill Duke (Capt. Earl Armbruster)
    Rating: R
    Long Deion: Сержант полиции Джексон, по прозвищу Боевик, бросает вызов жестоким убийцам, состоящим на службе у безжалостного автомагната, который рассчитывает путем убийств расчистить себе дорогу к политической власти.Преследуемый своими же коллегами-полицейскими по сфабрикованному обвинению, Джексон предпринимает отчаянную попытку разоблачения…
    Deion: Сержант полиции Джексон, по прозвищу Боевик, бросает вызов жестоким убийцам, состоящим на службе у безжалостного автомагната, который рассчитывает путем убийств расчистить себе дорогу к политической власти.
    Release Date: 1988-02-12T08:00:00Z
    Genre: Action Adventure
    Artist: Craig R. Baxley
    Name: Боевик Джексон
    Comments: NAME: Jericho Jackson NICKNAME: ;Action; HOME: Detroit PROFESSION: Cop EDUCATION: Harvard Law HOBBY: Fighting Crime WEAPON: You;re looking at ;em



    full-size screenshots







    Залил: gekka
    Размер скачиваемого торрента: 2.56 GB (2746187550 Bytes)

    Боевик Джексон / Action Jackson (1988) BDRip-AVC | iPad | D скачать через торрент бесплатно
    загрузка...
    Рейтинг →
     (голосов: 1, оценка 4/5, голосовать можно 1 раз )

    Другие торренты по теме:

  • Боевик Джексон / Джексон по кличке Мотор / Action Jackson (1988) BDRip от HQCLUB скачать через торрент бесплатно
  • Боевик Джексон (Джексон мотор) / Action Jackson / 1988 / ДБ, ПМ, АП (Михалев) / Blu-Ray (1080p)
  • Боевик Джексон / Джексон мотор / Action Jackson (1988) BDRip-AVC от 0ptimus | D, P, A
  • Боевик Джексон / Action Jackson скачать через торрент бесплатно
  • Боевик Джексон / Action Jackson (1988) BDRip 720p скачать через торрент бесплатно
  • Боевик Джексон / Action Jackson (2014) WEB-DL 720p | L2
  • Боевик Джексон / Action Jackson (2014) WEB-DLRip | L2


    • Комментарии (0):

      Информация

      Информация

        Посетители, находящиеся в группе Гости, не могут оставлять комментарии в данной новости.

        ↓ Меню



        ↓ Опрос

        А Вы добавили сайт в закладки?
        Да
        Не


        Top 10 за месяц (Фильмы)