.
Авторизация | Регистрация
Хочешь лучшие торренты? Добавь свой email!
Добавить
» » Чёрная сутана / Black robe (1991) BDRip by msltel | A скачать через торрент бесплатно




    Чёрная сутана / Black robe (1991) BDRip by msltel | A скачать через торрент бесплатно

    Опубликовал: Админ | Дата: 27-02-2015, 11:10 | Просмотров: 189



    Русское название: Чёрная сутана
    Русское название в мировом прокате: Black robe
    Создали в: 1991
    Категория жанра: Драма, приключения, вестерн, история
    Снималось в: Канада, Австралия, США, Alliance Communications Corporation, Australian Film Finance Corporation (AFFC), First Choice Canadian Communication Corporation
    Главный режиссер: Брюс Бересфорд
    Актеры: Танту Кардинал, Сандрин Холт, Жан Бруссо, Лоуренс Бэйн, Огаст Шелленберг, Эден Янг, Лотэр Блюто, Билли Ту Риверс, Хэррисон Лиу, Уэсли Коут, Фрэнк Уилсон

    Сюжет фильма: Действие происходит в XVII столетии в Новом Свете. Отец Лафорг — священник, которого Шамплен, основатель и губернатор Квебека, посылает в пограничную зону, чтобы обращать индейцев племени гуронов в истинную веру. Поклявшись быть проводником и защитником Лафорга, в путь отправляется и вождь алгонкинов Хомина, взявший с собой жену, юного сына и очень красивую дочь Аннуку, еще не достигшую совершеннолетия. Их также сопровождают несколько его воинов со своими семьями. Побуждаемый в равной степени страстью к Аннуке и стремлением служить Господу, к компании присоединяется молодой французский поселенец Даниэль. Вместе они отправляются в путешествие, в котором никого из них не ждёт ничего хорошего...

    Качество фильма: BDRip
    Информация о видео: XviD, 1902 Кбит/с, 720x384
    Информация о звуке: Русский, английский (AC3, 2 ch, 192 Кбит/с)
    Размер скачиваемого торрента: 1.55 ГБ
    Время просмотра: 01:36:20
    Перевод текста: Авторский (Василий Горчаков)
    Субтитры: Английские хардсабы на неанглийскую речь

    Исходник: ollan (Кинозал)

    Сравнение с исходником



    Награды
    5 призов Гений в Канаде — за фильм, режиссуру, работу оператора, художников (Херберт Пинтер и Гэвин Митчелл — Herbert Pinter, Gavin Mitchell) и второплановую мужскую роль (Огаст Шелленберг), а также премия Золотая бобина за самый кассовый канадский фильм, приз Австралийского киноинститута за операторскую работу
    MediaInfo
    Общее
    Полное имя : D:VideoChernaja sutana.1991.XviD.BDRip.avi
    Формат : AVI
    Формат/Информация : Audio Video Interleave
    Размер файла : 1,55 Гбайт
    Продолжительность : 1 ч. 36 м.
    Общий поток : 2300 Кбит/сек
    Программа кодирования : VirtualDubMod 1.5.10.2 (build 2540/release)
    Библиотека кодирования : VirtualDubMod build 2540/release

    Видео
    Идентификатор : 0
    Формат : MPEG-4 Visual
    Профиль формата : Advanced Simple@L5
    Параметр BVOP формата : 1
    Параметр QPel формата : Нет
    Параметр GMC формата : Без точки перехода
    Параметр матрицы формата : Default (H.263)
    Режим смешивания : Сжатый битовый поток
    Идентификатор кодека : XVID
    Идентификатор кодека/Подсказка : XviD
    Продолжительность : 1 ч. 36 м.
    Битрейт : 1902 Кбит/сек
    Ширина : 720 пикселей
    Высота : 384 пикселя
    Соотношение сторон : 1,85:1
    Частота кадров : 25,000 кадров/сек
    Цветовое пространство : YUV
    Субдискретизация насыщенности : 4:2:0
    Битовая глубина : 8 бит
    Тип развёртки : Прогрессивная
    Метод сжатия : С потерями
    Бит/(Пиксели*Кадры) : 0.275
    Размер потока : 1,28 Гбайт (83%)
    Библиотека кодирования : XviD 1.2.1 (UTC 2008-12-04)

    Аудио #1
    Идентификатор : 1
    Формат : AC-3
    Формат/Информация : Audio Coding 3
    Расширение режима : CM (complete main)
    Параметр Endianness формата : Big
    Идентификатор кодека : 2000
    Продолжительность : 1 ч. 36 м.
    Вид битрейта : Постоянный
    Битрейт : 192 Кбит/сек
    Каналы : 2 канала
    Расположение каналов : Front: L R
    Частота : 48,0 КГц
    Битовая глубина : 16 бит
    Метод сжатия : С потерями
    Размер потока : 132 Мбайт (8%)
    Выравнивание : Разделение по промежуткам
    Продолжительность промежутка : 40 мс. (1,00 видеокадр)
    Время предзагрузки промежутка : 500 мс.

    Аудио #2
    Идентификатор : 2
    Формат : AC-3
    Формат/Информация : Audio Coding 3
    Расширение режима : CM (complete main)
    Параметр Endianness формата : Big
    Идентификатор кодека : 2000
    Продолжительность : 1 ч. 36 м.
    Вид битрейта : Постоянный
    Битрейт : 192 Кбит/сек
    Каналы : 2 канала
    Расположение каналов : Front: L R
    Частота : 48,0 КГц
    Битовая глубина : 16 бит
    Метод сжатия : С потерями
    Размер потока : 132 Мбайт (8%)
    Выравнивание : Разделение по промежуткам
    Продолжительность промежутка : 40 мс. (1,00 видеокадр)
    Время предзагрузки промежутка : 500 мс.
    Скриншоты для ознакомления


    Залил: msltel
    Размер скачиваемого торрента: 1.55 GB (1661958144 Bytes)

    Чёрная сутана / Black robe (1991) BDRip by msltel | A скачать через торрент бесплатно
    загрузка...
    Рейтинг →
     (голосов: 1, оценка 4/5, голосовать можно 1 раз )

    Другие торренты по теме:

  • Чёрная сутана / Black robe (1991) BDRip 720p by msltel | A скачать через торрент бесплатно
  • Чёрная сутана / Black robe (1991) BDRip от Rulya74 | A скачать через торрент бесплатно


    • Комментарии (0):

      Информация

      Информация

        Посетители, находящиеся в группе Гости, не могут оставлять комментарии в данной новости.

        ↓ Меню



        ↓ Опрос

        А Вы добавили сайт в закладки?
        Да
        Не


        Top 10 за месяц (Фильмы)