.
Авторизация | Регистрация
» » Мученицы / Martyrs (2008) DVD5 | P скачать через торрент бесплатно




    Мученицы / Martyrs (2008) DVD5 | P скачать через торрент бесплатно

    Опубликовал: Админ | Дата: 27-02-2015, 11:10 | Просмотров: 206



    Детально о кино
    Русское название: Мученицы
    Русское название в мировом прокате: Martyrs
    Создали в: 2008
    Категория жанра: ужасы, триллер, драма
    Главный режиссер: Паскаль Ложье
    Актеры: Морьяна Алауи, Милен Джампаной, Катрин Беджин, Роберт Тупан, Патриция Туласне, Джульетт Госселин, Ксавье Долан, Луиз Бойсверт, Жан-Мари Монселе, Джесси Пэм

    Сюжет фильма:
    Франция, начало 70-х. Люси, маленькая девочка, почти год считавшаяся пропавшей без вести, обнаружена бредущей по проселочной дороге. Ребенок в состоянии глубокого шока и не может рассказать о случившемся. Полиция быстро находит место ее заточения — заброшенную скотобойню. Все говорит о том, что девочка долгое время не покидала своей тюрьмы. На грязном, исхудавшем, обезвоженном теле ребенка нет никаких следов сексуального насилия: это не было преступление, совершенное педофилом, но что-то гораздо более странное. Что случилось в этом месте? И как Люси сумела сбежать?




    Снималось в: Франция, Канада
    Киностудия: Canal+ fr, Eskwad, TCB Film, Wild Bunch
    Время просмотра: 99 мин. / 01:39
    Перевод текста: профессиональный (многоголосый, закадровый)

    Файл
    Кодек для видео: MPEG2
    Качество фильма: DVD5
    Информация о видео: PAL 16:9 (720x576@1024x576) VBR 4603 Kbps, 25.000 fps
    Информация о звуке: Dolby AC3, 6 ch, 48.0 KHz, 448 Kbps русский, французский
    Субтитры: русские

    MediaInfo
    General
    Complete name : D:MartyrsVIDEO_TSVTS_04_1.VOB
    Format : MPEG-PS
    File size : 1 024 MiB
    Duration : 25mn 31s
    Overall bit rate : 5 610 Kbps

    Video
    ID : 224 (0xE0)
    Format : MPEG Video
    Format version : Version 2
    Format profile : Main@Main
    Format settings, BVOP : Yes
    Format settings, Matrix : Custom
    Format settings, GOP : Variable
    Duration : 25mn 31s
    Bit rate : 4 603 Kbps
    Maximum bit rate : 5 000 Kbps
    Width : 720 pixels
    Height : 576 pixels
    Display aspect ratio : 16:9
    Frame rate : 25.000 fps
    Standard : PAL
    Color space : YUV
    Chroma subsampling : 4:2:0
    Bit depth : 8 bits
    Scan type : Interlaced
    Scan order : Top Field First
    Compression mode : Lossy
    Bits/(Pixel*Frame) : 0.444
    Time code of first frame : 02:27:06:13
    Time code source : Group of pictures t_head
    Stream size : 840 MiB (82%)

    Audio #1
    ID : 189 (0xBD)-128 (0x80)
    Format : AC-3
    Format/Info : Audio Coding 3
    Mode extension : CM (complete main)
    Format settings, Endianness : Big
    Muxing mode : DVD-Video
    Duration : 25mn 30s
    Bit rate mode : Constant
    Bit rate : 448 Kbps
    Channel(s) : 6 channels
    Channel positions : Front: L C R, Side: L R, LFE
    Sampling rate : 48.0 KHz
    Bit depth : 16 bits
    Compression mode : Lossy
    Delay relative to video : -80ms
    Stream size : 81.8 MiB (8%)

    Audio #2
    ID : 189 (0xBD)-129 (0x81)
    Format : AC-3
    Format/Info : Audio Coding 3
    Mode extension : CM (complete main)
    Format settings, Endianness : Big
    Muxing mode : DVD-Video
    Duration : 25mn 30s
    Bit rate mode : Constant
    Bit rate : 448 Kbps
    Channel(s) : 6 channels
    Channel positions : Front: L C R, Side: L R, LFE
    Sampling rate : 48.0 KHz
    Bit depth : 16 bits
    Compression mode : Lossy
    Delay relative to video : -80ms
    Stream size : 81.8 MiB (8%)

    Text
    ID : 189 (0xBD)-32 (0x20)
    Format : RLE
    Format/Info : Run-length encoding
    Muxing mode : DVD-Video

    Menu

    Скриншоты для ознакомления

    Залил: carisha
    Размер скачиваемого торрента: 4.21 GB (4518983680 Bytes)

    Мученицы / Martyrs (2008) DVD5 | P скачать через торрент бесплатно
    загрузка...
    Рейтинг →
     (голосов: 1, оценка 4/5, голосовать можно 1 раз )

    Другие торренты по теме:

  • Мученицы / Martyrs (2015) BDRip 720p | L1 скачать торрент бесплатно
  • Мученицы / Martyrs (2015) BDRip-AVC | iTunes скачать торрент бесплатно


    • Комментарии (0):

      Информация

      Информация

        Посетители, находящиеся в группе Гости, не могут оставлять комментарии в данной новости.

        ↓ Меню



        ↓ Опрос

        А Вы добавили сайт в закладки?
        Да
        Не


        Top 10 за неделю (Фильмы)