.
Авторизация | Регистрация
» » Философы: Урок выживания / The Philosophers (2013) BDRip 720p | Лицензия скачать через торрент бесплатно




    Философы: Урок выживания / The Philosophers (2013) BDRip 720p | Лицензия скачать через торрент бесплатно

    Опубликовал: Админ | Дата: 27-02-2015, 11:10 | Просмотров: 228



    Детально о кино
    Русское название: Философы: Урок выживания
    Русское название в мировом прокате: The Philosophers
    Создали в: 2013
    Категория жанра: Фантастика, триллер
    Снималось в: США, Индонезия, An Olive Branch Productions, SCTV
    Главный режиссер: Джон Хаддлс
    Актеры: Джеймс Дарси, Кэти Финдли, Бонни Райт, Дэрил Сэбара, Риз Уэйкфилд

    В международной школе в Джакарте таинственный учитель философии в качестве выпускного экзамена предлагает 20 студентам провести мысленный эксперимент. Этот опыт будет самым экстремальным, с которым они когда-либо сталкивались. Используя только силу логики, студенты должны выбрать, кто из них будет достоин получить место в подземном бункере - единственном месте, где можно спастись от приближающейся ядерной катастрофы. Бункер рассчитан на десять человек, а значит тех, кого не выбирают, ожидает жестокая смерть. Реальность классной комнаты эффектно перетекает в воображаемый, но в то же время пугающий мир надвигающегося апокалипсиса.



    Релиз подготовил:
    Файл
    Качество фильма: BDRip 720p
    Информация о видео: MPEG-4 AVC, 4352 Кбит/с, 1280x528
    Информация о звуке: AC3, 6 ch, 448 Кбит/с RUS
    Информация о звуке 2: AC3, 6 ch, 448 Кбит/с ENG
    Время просмотра: 01:46:39
    Перевод текста: Дублированный лицензия

    Дополнительно: Сохранены оригинальные чаптеры как на Blu-Ray




    MI

    Общее
    Уникальный идентификатор : 229352378757596170943900799222463394717 (0xAC8BA951F0E269BFA958BD91907CF39D)
    Полное имя : D:РелизыThe.philosophers.2013.720p.D.MegaPeer.mkv
    Формат : Matroska
    Версия формата : Version 4 / Version 2
    Размер файла : 3,91 Гбайт
    Продолжительность : 1 ч. 46 м.
    Общий поток : 5248 Кбит/сек
    Дата кодирования : UTC 2014-05-24 16:31:25
    Программа кодирования : mkvmerge v6.7.0 (;Back to the Ground;) 64bit built on Jan 8 2014 15:10:52
    Библиотека кодирования : libebml v1.3.0 + libmatroska v1.4.1

    Видео
    Идентификатор : 1
    Формат : AVC
    Формат/Информация : Advanced Video Codec
    Профиль формата : High@L4.1
    Параметр CABAC формата : Да
    Параметр ReFrames формата : 5 кадров
    Идентификатор кодека : V_MPEG4/ISO/AVC
    Продолжительность : 1 ч. 46 м.
    Битрейт : 4352 Кбит/сек
    Ширина : 1280 пикселей
    Высота : 528 пикселей
    Соотношение сторон : 2,40:1
    Режим частоты кадров : Постоянный
    Частота кадров : 24,000 кадра/сек
    Цветовое пространство : YUV
    Субдискретизация насыщенности : 4:2:0
    Битовая глубина : 8 бит
    Тип развёртки : Прогрессивная
    Бит/(Пиксели*Кадры) : 0.268
    Размер потока : 3,16 Гбайт (81%)
    Библиотека кодирования : x264 core 140 r2377 1ca7bb9
    Настройки программы : cabac=1 / ref=5 / deblock=1:0:0 / analyse=0x3:0x133 / me=umh / subme=7 / psy=1 / psy_rd=1.00:0.00 / mixed_ref=1 / me_range=16 / chroma_me=1 / trellis=1 / 8x8dct=1 / cqm=0 / deadzone=21,11 / fast_pskip=0 / chroma_qp_offset=-2 / threads=12 / lookahead_threads=2 / sliced_threads=0 / nr=0 / decimate=1 / interlaced=0 / bluray_compat=0 / constrained_intra=0 / bframes=3 / b_pyramid=2 / b_adapt=1 / b_bias=0 / direct=1 / weightb=1 / open_gop=0 / weightp=1 / keyint=250 / keyint_min=24 / scenecut=40 / intra_refresh=0 / rc_lookahead=40 / rc=2pass / mbtree=1 / bitrate=4352 / ratetol=1.0 / qcomp=0.60 / qpmin=0 / qpmax=69 / qpstep=4 / cplxblur=20.0 / qblur=0.5 / ip_ratio=1.40 / aq=1:1.00
    Default : Да
    Forced : Нет

    Аудио #1
    Идентификатор : 2
    Формат : AC-3
    Формат/Информация : Audio Coding 3
    Расширение режима : CM (complete main)
    Параметр Endianness формата : Big
    Идентификатор кодека : A_AC3
    Продолжительность : 1 ч. 46 м.
    Вид битрейта : Постоянный
    Битрейт : 448 Кбит/сек
    Каналы : 6 каналов
    Расположение каналов : Front: L C R, Side: L R, LFE
    Частота : 48,0 КГц
    Битовая глубина : 16 бит
    Метод сжатия : С потерями
    Размер потока : 342 Мбайт (9%)
    Язык : Russian
    Default : Нет
    Forced : Нет

    Аудио #2
    Идентификатор : 3
    Формат : AC-3
    Формат/Информация : Audio Coding 3
    Расширение режима : CM (complete main)
    Параметр Endianness формата : Big
    Идентификатор кодека : A_AC3
    Продолжительность : 1 ч. 46 м.
    Вид битрейта : Постоянный
    Битрейт : 448 Кбит/сек
    Каналы : 6 каналов
    Расположение каналов : Front: L C R, Side: L R, LFE
    Частота : 48,0 КГц
    Битовая глубина : 16 бит
    Метод сжатия : С потерями
    Размер потока : 342 Мбайт (9%)
    Язык : English
    Default : Нет
    Forced : Нет

    Меню
    00:07:30.000 : en:Chapter 01
    00:15:00.000 : en:Chapter 02
    00:22:30.000 : en:Chapter 03
    00:30:00.000 : en:Chapter 04
    00:37:30.000 : en:Chapter 05
    00:45:00.000 : en:Chapter 06
    00:52:30.000 : en:Chapter 07
    01:00:00.000 : en:Chapter 08
    01:07:30.000 : en:Chapter 09
    01:15:00.000 : en:Chapter 10
    01:22:30.000 : en:Chapter 11
    01:30:00.000 : en:Chapter 12
    01:37:30.000 : en:Chapter 12


    Размер скачиваемого торрента: 3.91 GB (4197475257 Bytes)

    Философы: Урок выживания / The Philosophers (2013) BDRip 720p | Лицензия скачать через торрент бесплатно
    загрузка...
    Рейтинг →
     (голосов: 1, оценка 5/5, голосовать можно 1 раз )

    Другие торренты по теме:



      Комментарии (0):

      Информация

      Информация

        Посетители, находящиеся в группе Гости, не могут оставлять комментарии в данной новости.

        ↓ Меню



        ↓ Опрос

        А Вы добавили сайт в закладки?
        Да
        Не


        Top 10 за неделю (Фильмы)