.
Авторизация | Регистрация
Хочешь лучшие торренты? Добавь свой email!
Добавить
» » Крокодил Данди / Crocodile Dundee (1986) BDRip-AVC | iPad | D скачать через торрент бесплатно




    Крокодил Данди / Crocodile Dundee (1986) BDRip-AVC | iPad | D скачать через торрент бесплатно

    Опубликовал: Админ | Дата: 27-02-2015, 11:10 | Просмотров: 210



    Крокодил Данди / Crocodile Dundee (1986) BDRip-AVC | iPad | D
    The Wizard of Auz hits The Big Apple!

    Русское название: Крокодил Данди
    Русское название в мировом прокате: Crocodile Dundee
    Создали в: 1986
    Категория жанра: комедия, приключения
    Главный режиссер: Питер Фэймен
    Актеры: Пол Хоган, Линда Козловски, Джон Майллон, Дэвид Галпилил, Ричи Сингер, Мэгги Блинко, Стив Рэкмен, Джерри Скилтон, Терри Гилл, Питер Тернбулл

    Сюжет фильма:
    Американская журналистка приезжает в глубинку Австралии, и охотник на крокодилов знакомит ее с местными достопримечательностями. Она же приглашает его в Нью-Йорк, и там отважный охотник попадает в неведомые ему джунгли...



    Снималось в: Австралия
    Киностудия: Rimfire Films

    Время просмотра: 01:37:42
    Перевод текста: Русский дублированный

    Файл
    Кодек для видео: H.264
    Качество фильма: BDRip 576p
    Информация о видео: 1024x436 (2.35:1) at 23.976 fps, AVC at 3000 kbps
    Информация о звуке:
    1: АAС 2.0 100 kbps - Русский дублированный
    Субтитры: отсутствуют

    MediaInfo

    General
    Complete name : C:CREATE264mod1outCrocodile.Dundee.1986.576p.D.m4v
    Format : MPEG-4
    Codec ID : M4V
    File size : 2.15 GiB
    Duration : 1h 37mn
    Overall bit rate mode : Variable
    Overall bit rate : 3 143 Kbps
    Movie name : Крокодил Данди
    Performer : Peter Faiman
    Genre : Action Adventure
    ContentType : Short Film
    Deion : Американская журналистка приезжает в глубинку Австралии, и охотник на крокодилов знакомит ее с местными достопримечательностями. Она же приглашает его в Нью-Йорк, и там отважный охотник попадает в неведомые ему джунгли…
    Recorded date : UTC 1986-04-24 08:00:00
    Encoded date : UTC 2014-05-24 12:50:31
    Tagged date : UTC 2014-05-24 12:52:34
    Copyright : © 1991 Paramount Pictures
    Cover : Yes
    Comment : The Wizard of Auz hits The Big Apple!
    ContentRating : mpaa|PG-13|300|

    Title/Sort : Crocodile Dundee
    LongDeion : Американская журналистка приезжает в глубинку Австралии, и охотник на крокодилов знакомит ее с местными достопримечательностями. Она же приглашает его в Нью-Йорк, и там отважный охотник попадает в неведомые ему джунгли…
    AppleStoreCatalogID : 266776392
    Vendor : Apple:vendor_id:1986-8126

    Video
    ID : 1
    Format : AVC
    Format/Info : Advanced Video Codec
    Format profile : High@L4.1
    Format settings, CABAC : Yes
    Format settings, ReFrames : 12 frames
    Codec ID : avc1
    Codec ID/Info : Advanced Video Coding
    Duration : 1h 37mn
    Bit rate : 3 041 Kbps
    Maximum bit rate : 14.8 Mbps
    Width : 1 024 pixels
    Height : 436 pixels
    Display aspect ratio : 2.35:1
    Frame rate mode : Constant
    Frame rate : 23.976 fps
    Color space : YUV
    Chroma subsampling : 4:2:0
    Bit depth : 8 bits
    Scan type : Progressive
    Bits/(Pixel*Frame) : 0.284
    Stream size : 2.08 GiB (97%)
    Title : Crocodile.Dundee.1986
    Language : English
    Encoded date : UTC 2014-05-24 12:50:31
    Tagged date : UTC 2014-05-24 12:50:49

    Audio
    ID : 2
    Format : AAC
    Format/Info : Advanced Audio Codec
    Format profile : LC
    Codec ID : 40
    Duration : 1h 37mn
    Bit rate mode : Variable
    Bit rate : 84.2 Kbps
    Maximum bit rate : 165 Kbps
    Channel(s) : 2 channels
    Channel positions : Front: L R
    Sampling rate : 48.0 KHz
    Compression mode : Lossy
    Stream size : 58.8 MiB (3%)
    Title : Dub
    Language : Russian
    Encoded date : UTC 2014-05-24 12:50:45
    Tagged date : UTC 2014-05-24 12:50:49

    Menu
    ID : 3
    Codec ID : text
    Duration : 1h 37mn
    Encoded date : UTC 2014-05-24 12:51:17
    Tagged date : UTC 2014-05-24 12:51:17
    Bit rate mode : CBR

    x264

    x264 info: frame I:915 Avg QP:15.59 size: 72249
    x264 info: frame P:31695 Avg QP:18.00 size: 30830
    x264 info: frame B:107935 Avg QP:19.75 size: 10978
    x264 info: consecutive B-frames: 2.1% 2.5% 7.2% 25.7% 24.7% 32.3% 3.1% 1.3% 0.5% 0.3% 0.1% 0.1% 0.1% 0.1% 0.1%
    x264 info: mb I I16..4: 9.3% 57.2% 33.6%
    x264 info: mb P I16..4: 0.7% 9.8% 4.1% P16..4: 27.2% 34.6% 14.5% 4.2% 0.7% skip: 4.3%
    x264 info: mb B I16..4: 0.1% 1.0% 0.8% B16..8: 32.0% 22.3% 3.8% direct: 8.2% skip:31.8% L0:36.1% L1:39.4% BI:24.4%
    x264 info: 8x8 transform intra:62.8% inter:38.0%
    x264 info: coded y,uvDC,uvAC intra: 87.8% 73.4% 48.9% inter: 31.9% 15.1% 5.0%
    x264 info: i16 v,h,dc,p: 11% 8% 11% 69%
    x264 info: i8 v,h,dc,ddl,ddr,vr,hd,vl,hu: 12% 10% 7% 9% 13% 12% 12% 12% 13%
    x264 info: i4 v,h,dc,ddl,ddr,vr,hd,vl,hu: 38% 9% 6% 6% 9% 8% 8% 7% 8%
    x264 info: i8c dc,h,v,p: 30% 31% 22% 17%
    x264 info: Weighted P-Frames: Y:9.1% UV:3.8%
    x264 info: ref P L0: 52.3% 11.7% 13.2% 6.3% 4.4% 3.3% 2.6% 1.6% 1.3% 1.1% 1.0% 0.9% 0.1% 0.0%
    x264 info: ref B L0: 85.2% 5.9% 3.1% 1.6% 1.2% 0.9% 0.7% 0.5% 0.4% 0.3% 0.2%
    x264 info: ref B L1: 96.0% 4.0%
    x264 info: kb/s:3040.81
    iTunes tags


    Sort Name: Crocodile Dundee
    XID: Apple:vendor_id:1986-8126
    Content ID: 266776392
    Copyright: © 1991 Paramount Pictures
    ScreenWriters: Пол Хоган, Джон Корнелл, Кен Шэди
    Producers: Джон Корнелл, Джейн Скотт, Вейн Янг
    Director: Питер Фэймен
    Cast: Пол Хоган, Линда Козловски, Джон Майллон, Дэвид Галпилил, Ричи Сингер, Мэгги Блинко, Стив Рэкмен, Джерри Скилтон, Терри Гилл, Питер Тернбулл // Paul Hogan (Michael J. ;Crocodile; Dundee), Linda Kozlowski (Sue Charlton), John Meillon (Walter Reilly), David Gulpilil (Neville Bell), Michael Lombard (Sam Charlton), Ritchie Singer (Con), Mark Blum (Richard Mason), Reginald VelJohnson (Gus), Rik Colitti (Danny), John Snyder (Pimp)
    Rating: PG-13
    Long Deion: Американская журналистка приезжает в глубинку Австралии, и охотник на крокодилов знакомит ее с местными достопримечательностями. Она же приглашает его в Нью-Йорк, и там отважный охотник попадает в неведомые ему джунгли…
    Deion: Американская журналистка приезжает в глубинку Австралии, и охотник на крокодилов знакомит ее с местными достопримечательностями. Она же приглашает его в Нью-Йорк, и там отважный охотник попадает в неведомые ему джунгли…
    Release Date: 1986-04-24T08:00:00Z
    Genre: Action Adventure
    Artist: Peter Faiman
    Name: Крокодил Данди
    Comments: The Wizard of Auz hits The Big Apple!






    Залил: gekka
    Размер скачиваемого торрента: 2.15 GB (2303219710 Bytes)

    Крокодил Данди / Crocodile Dundee (1986) BDRip-AVC | iPad | D скачать через торрент бесплатно
    загрузка...
    Рейтинг →
     (голосов: 1, оценка 3/5, голосовать можно 1 раз )

    Другие торренты по теме:

  • Крокодил Данди: Трилогия / Crocodile Dundee: Trilogy (1986-2001) HDTV 1080i, HDTVRip 1080p
  • Крокодил Данди / Crocodile Dundee (1986) HDTVRip от New-Team скачать через торрент бесплатно
  • Крокодил Данди 2 / Crocodile Dundee 2 (1988) HDTVRip от New-Team скачать через торрент бесплатно
  • Крокодил Данди 2 / Crocodile Dundee 2 (1988) HDTVRip-AVC от New-Team
  • Крокодил Данди / Crocodile Dundee (1986) HDTVRip-AVC от New-Team
  • Крокодил Данди / Crocodile Dundee (1986) BDRemux 1080p | D, P, A скачать через торрент бесплатно
  • Крокодил Данди / Crocodile Dundee (1986) BDRip 720p от MediaClub скачать через торрент бесплатно
  • Крокодил Данди / Crocodile Dundee (1986) BDRip от MediaClub


    • Комментарии (0):

      Информация

      Информация

        Посетители, находящиеся в группе Гости, не могут оставлять комментарии в данной новости.

        ↓ Меню



        ↓ Опрос

        А Вы добавили сайт в закладки?
        Да
        Не


        Top 10 за месяц (Фильмы)