.
Авторизация | Регистрация
Хочешь лучшие торренты? Добавь свой email!
Добавить
» » Небезопасно для работы / Not Safe for Work (2014) BDRip 1080p | Лицензия скачать через торрент бесплатно




    Небезопасно для работы / Not Safe for Work (2014) BDRip 1080p | Лицензия скачать через торрент бесплатно

    Опубликовал: Админ | Дата: 27-02-2015, 11:10 | Просмотров: 164



    Детально о кино
    Русское название: Небезопасно для работы
    Русское название в мировом прокате: Not Safe for Work
    Создали в: 2014
    Категория жанра: Триллер
    Главный режиссер: Джо Джонстон
    Актеры: Джей Джей Филд, Элоиза Мамфорд, Макс Мингелла, Майкл Глэдис, Молли Хэйгэн, Кристиан Клименсон, Брэндон Кинер, Тим Гриффин, Марина Блэк, Эме Иквуакор

    Сюжет: Обычный офисный работник Том Миллер вынужден вступить в смертельное противостояние с безумным убийцей, оказавшимся в одном с ним здании. Том всеми силами пытается защитить работающих допоздна сотрудников своей юридической фирмы, которые не подозревают о нависшей над ними угрозой, однако вскоре выясняет, что его коллеги скрывают ужасную тайну, из-за которой тысячи жизней подвергаются опасности.



    Снималось в: США / Blumhouse Productions
    Время просмотра: 01:14:11
    Перевод текста: Профессиональный (полное дублирование) - Лицензия

    Файл
    Качество фильма: BDRip 1080p
    Тип видео: MKV
    Информация о видео: MPEG4/AVC, 1920х1036 (1.85:1), 12.1 Мбит/сек, 23.976 кадр/с
    Информация о звуке 1: AC3, 6 каналов, 640 Кбит/с | Лицензия
    Информация о звуке 2: AC3, 6 каналов, 640 Кбит/с | Английский
    Субтитры: Русские, украинские, английские (full, SDH)
    Навигация по главам: Есть

    MediaInfo:
    Общее
    Уникальный идентификатор : 207503468808196408515615897862874949796 (0x9C1BB6E3D939FA08AD44AF9AE7C168A4)
    Полное имя : Not Safe For Work. (2014) BDRip 1080p.mkv
    Формат : Matroska
    Версия формата : Version 2
    Размер файла : 6,91 Гбайт
    Продолжительность : 1 ч. 14 м.
    Общий поток : 13,3 Мбит/сек
    Название фильма : Not Safe for Work. 2014
    Дата кодирования : UTC 2014-05-24 10:50:25
    Программа кодирования : mkvmerge v5.8.0 (;No Sleep / Pillow;) built on Sep 2 2012 15:37:04
    Библиотека кодирования : libebml v1.2.3 + libmatroska v1.3.0

    Видео
    Идентификатор : 1
    Формат : AVC
    Формат/Информация : Advanced Video Codec
    Профиль формата : High@L4.1
    Параметр CABAC формата : Да
    Параметр ReFrames формата : 4 кадра
    Идентификатор кодека : V_MPEG4/ISO/AVC
    Продолжительность : 1 ч. 14 м.
    Битрейт : 12,1 Мбит/сек
    Ширина : 1920 пикселей
    Высота : 1036 пикселей
    Соотношение сторон : 1,85:1
    Режим частоты кадров : Постоянный
    Частота кадров : 23,976 кадра/сек
    Цветовое пространство : YUV
    Субдискретизация насыщенности : 4:2:0
    Битовая глубина : 8 бит
    Тип развёртки : Прогрессивная
    Бит/(Пиксели*Кадры) : 0.253
    Размер потока : 6,11 Гбайт (88%)
    Заголовок : CHD
    Библиотека кодирования : x264 core 135 r2345 f0c1c53
    Настройки программы : cabac=1 / ref=4 / deblock=1:-3:-3 / analyse=0x3:0x113 / me=umh / subme=9 / psy=1 / psy_rd=1.00:0.05 / mixed_ref=1 / me_range=32 / chroma_me=1 / trellis=2 / 8x8dct=1 / cqm=0 / deadzone=21,11 / fast_pskip=0 / chroma_qp_offset=-2 / threads=12 / lookahead_threads=1 / sliced_threads=0 / nr=0 / decimate=1 / interlaced=0 / bluray_compat=0 / constrained_intra=0 / bframes=4 / b_pyramid=2 / b_adapt=2 / b_bias=0 / direct=3 / weightb=1 / open_gop=0 / weightp=2 / keyint=250 / keyint_min=23 / scenecut=40 / intra_refresh=0 / rc=2pass / mbtree=0 / bitrate=12057 / ratetol=1.0 / qcomp=0.70 / qpmin=0 / qpmax=69 / qpstep=4 / cplxblur=20.0 / qblur=0.5 / ip_ratio=1.40 / pb_ratio=1.30 / aq=2:1.00
    Язык : English
    Default : Да
    Forced : Нет

    Аудио #1
    Идентификатор : 2
    Формат : AC-3
    Формат/Информация : Audio Coding 3
    Расширение режима : CM (complete main)
    Параметр Endianness формата : Big
    Идентификатор кодека : A_AC3
    Продолжительность : 1 ч. 14 м.
    Вид битрейта : Постоянный
    Битрейт : 640 Кбит/сек
    Каналы : 6 каналов
    Расположение каналов : Front: L C R, Side: L R, LFE
    Частота : 48,0 КГц
    Битовая глубина : 16 бит
    Метод сжатия : С потерями
    Размер потока : 340 Мбайт (5%)
    Заголовок : Rus
    Язык : Russian
    Default : Да
    Forced : Нет

    Аудио #2
    Идентификатор : 3
    Формат : AC-3
    Формат/Информация : Audio Coding 3
    Расширение режима : CM (complete main)
    Параметр Endianness формата : Big
    Идентификатор кодека : A_AC3
    Продолжительность : 1 ч. 14 м.
    Вид битрейта : Постоянный
    Битрейт : 640 Кбит/сек
    Каналы : 6 каналов
    Расположение каналов : Front: L C R, Side: L R, LFE
    Частота : 48,0 КГц
    Битовая глубина : 16 бит
    Метод сжатия : С потерями
    Размер потока : 340 Мбайт (5%)
    Заголовок : Eng
    Язык : English
    Default : Нет
    Forced : Нет

    Текст #1
    Идентификатор : 4
    Формат : UTF-8
    Идентификатор кодека : S_TEXT/UTF8
    Идентификатор кодека/Информация : UTF-8 Plain Text
    Заголовок : Rus
    Язык : Russian
    Default : Нет
    Forced : Нет

    Текст #2
    Идентификатор : 5
    Формат : UTF-8
    Идентификатор кодека : S_TEXT/UTF8
    Идентификатор кодека/Информация : UTF-8 Plain Text
    Заголовок : Ukr
    Язык : Ukrainian
    Default : Нет
    Forced : Нет

    Текст #3
    Идентификатор : 6
    Формат : UTF-8
    Идентификатор кодека : S_TEXT/UTF8
    Идентификатор кодека/Информация : UTF-8 Plain Text
    Заголовок : Full
    Язык : English
    Default : Нет
    Forced : Нет

    Текст #4
    Идентификатор : 7
    Формат : UTF-8
    Идентификатор кодека : S_TEXT/UTF8
    Идентификатор кодека/Информация : UTF-8 Plain Text
    Заголовок : SDH
    Язык : English
    Default : Нет
    Forced : Нет

    Меню
    00:00:00.000 : en:00:00:00.000
    00:02:41.620 : en:00:02:41.620
    00:04:53.627 : en:00:04:53.627
    00:09:28.651 : en:00:09:28.651
    00:11:32.609 : en:00:11:32.609
    00:14:42.799 : en:00:14:42.799
    00:17:25.586 : en:00:17:25.586
    00:21:00.551 : en:00:21:00.551
    00:24:54.451 : en:00:24:54.451
    00:29:20.634 : en:00:29:20.634
    00:34:11.049 : en:00:34:11.049
    00:38:54.999 : en:00:38:54.999
    00:42:18.244 : en:00:42:18.244
    00:44:49.729 : en:00:44:49.729
    00:49:25.171 : en:00:49:25.171
    00:54:02.906 : en:00:54:02.906
    00:58:54.114 : en:00:58:54.114
    01:03:05.198 : en:01:03:05.198
    01:08:11.546 : en:01:08:11.546
    01:10:39.819 : en:01:10:39.819

    Скриншоты для ознакомления:


    Релиз подготовил:
    Размер скачиваемого торрента: 6.91 GB (7418994435 Bytes)

    Небезопасно для работы / Not Safe for Work (2014) BDRip 1080p | Лицензия скачать через торрент бесплатно
    загрузка...
    Рейтинг →
     (голосов: 1, оценка 3/5, голосовать можно 1 раз )

    Другие торренты по теме:

  • Небезопасно для работы / Not Safe for Work (2014) BDRip 720p от FireBit-Films | Лицензия скачать через торрент бесплатно
  • Небезопасно для работы / Not Safe for Work (2014) BDRip-AVC от HELLYWOOD | Лицензия
  • Небезопасно для работы / Not Safe for Work (2014) BDRip | Лицензия
  • Небезопасно для работы / Not Safe for Work (2014) BDRip-AVC от FireBit-Films | Лицензия
  • Небезопасно для работы / Not Safe for Work (2014) BDRip от HELLYWOOD | Лицензия
  • Небезопасно для работы / Not Safe for Work (2014) BDRip 720p от Leonardo and Scarabey скачать через торрент бесплатно
  • Небезопасно для работы / Not Safe for Work (2015) HDTVRip | HamsterStudio


    • Комментарии (0):

      Информация

      Информация

        Посетители, находящиеся в группе Гости, не могут оставлять комментарии в данной новости.

        ↓ Меню



        ↓ Опрос

        А Вы добавили сайт в закладки?
        Да
        Не


        Top 10 за месяц (Фильмы)