.
Авторизация | Регистрация
Хочешь лучшие торренты? Добавь свой email!
Добавить
» » Исход / Exodus (1960) BDRip by msltel | P скачать через торрент бесплатно




    Исход / Exodus (1960) BDRip by msltel | P скачать через торрент бесплатно

    Опубликовал: Админ | Дата: 27-02-2015, 11:10 | Просмотров: 274



    Русское название: Исход
    Русское название в мировом прокате: Exodus
    Создали в: 1960
    Категория жанра: Боевик, драма, военный, история
    Снималось в: США, Carlyle Productions
    Главный режиссер: Отто Премингер
    Актеры: Пол Ньюман, Ева Мари Сэйнт, Ральф Ричардсон, Питер Лоуфорд, Сэл Минео, Джон Дерек

    Сюжет фильма: Добросовестная неторопливая экранизация романа Леона Уриса рассказывает о создании и первых годах Израиля, войне за независимость, называемой во всем мире Палестинской. В повествовании множество персонажей. В центре можно выделить дуэт Пола Ньюмана в роли израильского лидера сопротивления и Эвы Мари Сэйнт в роли армейской медсестры, нееврейки. Первые годы, первые ошибки, первая война... Борьба каждый день и каждый час. Так суждено было снова, спустя тысячелетия, появиться на свет государству Израиль, преодолевая лишения и враждебное окружение, выживая за счёт самопожертвования людей. И посреди этих грандиозных исторических событий, смерти и рождения, каждый переживает свою личную драму, влюбляется и расстаётся. В местами наивной и доброй, но в целом серьёзной исторической драме, показана история глазами простого человека - медсестры, оказавшейся в Палестине случайно и поначалу относящейся нейтрально по отношению ко всему происходящему. Постепенно она втягивается в конфликт и влюбляется в эту страну...

    Качество фильма: BDRip
    Информация о видео: XviD, 1575 Кбит/с, 720x304
    Информация о звуке: Русский, испанский (AC3, 2 ch, 192 Кбит/с)
    Размер скачиваемого торрента: 3.14 ГБ
    Время просмотра: 03:27:58
    Перевод текста: Профессиональный многоголосый (1.DVD Магия, 2.SomeWax)

    Исходник: alinto (HDtracker)

    Сравнение с исходником



    Награды

    Оскар, 1961 год
    Победитель (1):
    Лучший саундтрек для драматических/комедийных картин

    Номинации (2):
    Лучшая мужская роль второго плана (Сэл Минео)
    Лучшая работа оператора (цветные фильмы)

    Золотой глобус, 1961 год
    Победитель (1):
    Лучшая мужская роль второго плана (Сэл Минео)

    Номинации (2):
    Лучший саундтрек
    Самый многообещающий новичок среди женщин (Джилл Хэйуорт)
    MediaInfo
    Общее
    Полное имя : D:VideoIshod.1960 XviD.BDRipIshod.1960 MVO.rus.SomeWax.ac3
    Формат : AC-3
    Формат/Информация : Audio Coding 3
    Размер файла : 286 Мбайт
    Продолжительность : 3 ч. 27 м.
    Режим общего битрейта : Постоянный
    Общий поток : 192 Кбит/сек

    Аудио
    Формат : AC-3
    Формат/Информация : Audio Coding 3
    Расширение режима : CM (complete main)
    Параметр Endianness формата : Big
    Продолжительность : 3 ч. 27 м.
    Вид битрейта : Постоянный
    Битрейт : 192 Кбит/сек
    Каналы : 2 канала
    Расположение каналов : Front: L R
    Частота : 48,0 КГц
    Битовая глубина : 16 бит
    Метод сжатия : С потерями
    Размер потока : 286 Мбайт (100%)

    Общее
    Полное имя : D:VideoIshod.1960 XviD.BDRipIshod.1960 Original.spa.ac3
    Формат : AC-3
    Формат/Информация : Audio Coding 3
    Размер файла : 286 Мбайт
    Продолжительность : 3 ч. 27 м.
    Режим общего битрейта : Постоянный
    Общий поток : 192 Кбит/сек

    Аудио
    Формат : AC-3
    Формат/Информация : Audio Coding 3
    Расширение режима : CM (complete main)
    Параметр Endianness формата : Big
    Продолжительность : 3 ч. 27 м.
    Вид битрейта : Постоянный
    Битрейт : 192 Кбит/сек
    Каналы : 2 канала
    Расположение каналов : Front: L R
    Частота : 48,0 КГц
    Битовая глубина : 16 бит
    Метод сжатия : С потерями
    Размер потока : 286 Мбайт (100%)

    Общее
    Полное имя : D:VideoIshod.1960 XviD.BDRipIshod.1960 XviD.BDRip.avi
    Формат : AVI
    Формат/Информация : Audio Video Interleave
    Профиль формата : OpenDML
    Размер файла : 2,58 Гбайт
    Продолжительность : 3 ч. 27 м.
    Общий поток : 1778 Кбит/сек
    Программа кодирования : VirtualDubMod 1.5.10.2 (build 2540/release)
    Библиотека кодирования : VirtualDubMod build 2540/release

    Видео
    Идентификатор : 0
    Формат : MPEG-4 Visual
    Профиль формата : Advanced Simple@L5
    Параметр BVOP формата : 1
    Параметр QPel формата : Нет
    Параметр GMC формата : Без точки перехода
    Параметр матрицы формата : Default (H.263)
    Режим смешивания : Сжатый битовый поток
    Идентификатор кодека : XVID
    Идентификатор кодека/Подсказка : XviD
    Продолжительность : 3 ч. 27 м.
    Битрейт : 1575 Кбит/сек
    Ширина : 720 пикселей
    Высота : 304 пикселя
    Соотношение сторон : 2,35:1
    Частота кадров : 23,976 кадра/сек
    Цветовое пространство : YUV
    Субдискретизация насыщенности : 4:2:0
    Битовая глубина : 8 бит
    Тип развёртки : Прогрессивная
    Метод сжатия : С потерями
    Бит/(Пиксели*Кадры) : 0.300
    Размер потока : 2,29 Гбайт (89%)
    Библиотека кодирования : XviD 1.2.1 (UTC 2008-12-04)

    Аудио
    Идентификатор : 1
    Формат : AC-3
    Формат/Информация : Audio Coding 3
    Расширение режима : CM (complete main)
    Параметр Endianness формата : Big
    Идентификатор кодека : 2000
    Продолжительность : 3 ч. 27 м.
    Вид битрейта : Постоянный
    Битрейт : 192 Кбит/сек
    Каналы : 2 канала
    Расположение каналов : Front: L R
    Частота : 48,0 КГц
    Битовая глубина : 16 бит
    Метод сжатия : С потерями
    Размер потока : 286 Мбайт (11%)
    Выравнивание : Разделение по промежуткам
    Продолжительность промежутка : 42 мс. (1,00 видеокадр)
    Время предзагрузки промежутка : 500 мс.
    Скриншоты для ознакомления


    Залил: msltel
    Размер скачиваемого торрента: 3.14 GB (3371907840 Bytes)

    Исход / Exodus (1960) BDRip by msltel | P скачать через торрент бесплатно
    загрузка...
    Рейтинг →
     (голосов: 1, оценка 5/5, голосовать можно 1 раз )

    Другие торренты по теме:

  • Исход с Востока 2 / Exodus from the east 2 (2002) DVDRip-AVC от Тorrent-Хzona
  • Исход с Востока 1 / Exodus from the east 1 (2002) DVDRip-AVC от Тorrent-Хzona
  • Перейти черту / Исход Чарли Райта / Across the Line: The Exodus of Charlie Wright (2010) BDRip от Rulya74 | P скачать через торрент бесплатно
  • Исход / Exodus (1960) BDRip 720p by msltel | P скачать через торрент бесплатно
  • Исход / Exodus (1960) BDRip 1080p by msltel | P скачать через торрент бесплатно
  • Исход: Цари и боги (2015) HDRip
  • OST - Исход: Цари и боги / Exodus: Gods and Kings (Original Motion Picture Soundtrack) скачать через торрент бесплатно
  • Исход: Цари и боги / Exodus: Gods and Kings (2014) WEB-DLRip | iTunes


    • Комментарии (0):

      Информация

      Информация

        Посетители, находящиеся в группе Гости, не могут оставлять комментарии в данной новости.

        ↓ Меню



        ↓ Опрос

        А Вы добавили сайт в закладки?
        Да
        Не


        Top 10 за месяц (Фильмы)