.
Авторизация | Регистрация
» » Дворецкий / The Butler (2013) BDRip 720p от New-Team | P, L2, L1 | лицензия скачать через торрент бесплатно




    Дворецкий / The Butler (2013) BDRip 720p от New-Team | P, L2, L1 | лицензия скачать через торрент бесплатно

    Опубликовал: Админ | Дата: 27-02-2015, 11:10 | Просмотров: 168

    One quiet voice can ignite a revolution



    Снималось в: США / AI-Film, Follow Through Productions, Laura Ziskin Productions, Lee Daniels Entertainment, Pam Williams Productions, Salamander Pictures, Windy Hill Pictures

    Категория жанра: драма, биография
    Создали в: 2013
    Время просмотра: 02:12:06

    Перевод текста: Профессиональный (многоголосый закадровый) + Любительский (двухголосый) + Любительский (одноголосый, VANO)
    Субтитры подготовлены: русские, английские
    Оригинальная аудиодорожка: английский

    Главный режиссер: Ли Дэниелс / Lee Daniels

    Актеры: Форест Уитакер, Опра Уинфри, Кьюба Гудинг мл., Дэвид Ойелоуо, Терренс Ховард, Робин Уильямс, Лив Шрайбер, Алан Рикман, Джон Кьюсак, Дэвид Баннер...

    Сюжет: В фильме, основанном на статье из Washington Post, рассказывается о дворецком Юджине Аллене, служившем в Белом Доме под началом восьми разных президентов.



    Качество фильма: BDRip 1080p / The.Butler.2013.720p.BluRay.x264.RUs.Eng.Subs-DON + DVD9 R5 от Lizard Cinema Trade
    Тип видео: MKV

    Информация о видео: 1280x694 (1.85:1), 23.976 fps, MPEG-4 AVC, 7620 Кбит/сек, 0.358 bit/pixel
    Информация о звуке 1: 48 kHz, Dolby AC3, 6 ch, 448 kbps, русский - Профессиональный
    Информация о звуке 2: 48 kHz, Dolby AC3, 6 ch, 448 kbps, русский - Любительский двухголосый
    Информация о звуке 3: 48 kHz, Dolby AC3, 6 ch, 448 kbps, русский - Любительский одноголосый (VANO)
    Информация о звуке 4: 48 kHz, DTS, 6 ch, 1536 Кбит/с, английский
    Тип видео субтитров: SoftSub (srt), русские субтитры извлечены из лицензионного DVD9 R5 диска от Lizard Cinema Trade

    Раздача от:
    MediaInfo

    Общее
    Полное имя : Dvoretskiy.2013.P.BDRip.720p.New-Team.mkv
    Формат : Matroska
    Версия формата : Version 4 / Version 2
    Размер файла : 9,74 Гбайт
    Продолжительность : 2 ч. 12 м.
    Общий поток : 10,6 Мбит/сек
    Дата кодирования : UTC 2014-05-23 10:23:22
    Программа кодирования : mkvmerge v6.9.1 (;Blue Panther;) 64bit built on Apr 18 2014 18:23:38
    Библиотека кодирования : libebml v1.3.0 + libmatroska v1.4.1

    Видео
    Идентификатор : 1
    Формат : AVC
    Формат/Информация : Advanced Video Codec
    Профиль формата : High@L4.1
    Параметр CABAC формата : Да
    Параметр ReFrames формата : 9 кадров
    Идентификатор кодека : V_MPEG4/ISO/AVC
    Продолжительность : 2 ч. 12 м.
    Битрейт : 7620 Кбит/сек
    Ширина : 1280 пикселей
    Высота : 694 пикселя
    Соотношение сторон : 1,85:1
    Режим частоты кадров : Постоянный
    Частота кадров : 23,976 кадра/сек
    Цветовое пространство : YUV
    Субдискретизация насыщенности : 4:2:0
    Битовая глубина : 8 бит
    Тип развёртки : Прогрессивная
    Бит/(Пиксели*Кадры) : 0.358
    Размер потока : 7,03 Гбайт (72%)
    Библиотека кодирования : x264 core 140 r2377+40 929f149 tMod 8-bit@4:2:0 X86
    Настройки программы : cabac=1 / ref=9 / deblock=1:-3:-3 / analyse=0x3:0x113 / me=tesa / subme=10 / psy=1 / fade_compensate=0.00 / psy_rd=1.10:0.00 / mixed_ref=1 / me_range=32 / chroma_me=1 / trellis=2 / 8x8dct=1 / cqm=0 / deadzone=21,11 / fast_pskip=0 / chroma_qp_offset=-2 / threads=12 / lookahead_threads=3 / sliced_threads=0 / nr=0 / decimate=0 / interlaced=0 / bluray_compat=0 / constrained_intra=0 / fgo=0 / bframes=12 / b_pyramid=2 / b_adapt=2 / b_bias=0 / direct=3 / weightb=1 / open_gop=0 / weightp=2 / keyint=250 / keyint_min=23 / scenecut=40 / intra_refresh=0 / rc=crf / mbtree=0 / crf=18.5000 / qcomp=0.70 / qpmin=0:0:0 / qpmax=69:69:69 / qpstep=4 / ip_ratio=1.30 / pb_ratio=1.00 / aq=4:0.70 / aq-sensitivity=10.00 / aq-factor=1.00:1.00:1.00 / aq2=0 / aq3=0
    Язык : English
    Default : Да
    Forced : Нет

    Аудио #1
    Идентификатор : 2
    Формат : AC-3
    Формат/Информация : Audio Coding 3
    Расширение режима : CM (complete main)
    Параметр Endianness формата : Big
    Идентификатор кодека : A_AC3
    Продолжительность : 2 ч. 12 м.
    Вид битрейта : Постоянный
    Битрейт : 448 Кбит/сек
    Каналы : 6 каналов
    Расположение каналов : Front: L C R, Side: L R, LFE
    Частота : 48,0 КГц
    Битовая глубина : 16 бит
    Метод сжатия : С потерями
    Размер потока : 423 Мбайт (4%)
    Заголовок : MVO 448 kbps
    Язык : Russian
    Default : Да
    Forced : Нет

    Аудио #2
    Идентификатор : 3
    Формат : AC-3
    Формат/Информация : Audio Coding 3
    Расширение режима : CM (complete main)
    Параметр Endianness формата : Big
    Идентификатор кодека : A_AC3
    Продолжительность : 2 ч. 12 м.
    Вид битрейта : Постоянный
    Битрейт : 384 Кбит/сек
    Каналы : 6 каналов
    Расположение каналов : Front: L C R, Side: L R, LFE
    Частота : 48,0 КГц
    Битовая глубина : 16 бит
    Метод сжатия : С потерями
    Размер потока : 363 Мбайт (4%)
    Заголовок : DVO
    Язык : Russian
    Default : Нет
    Forced : Нет

    Аудио #3
    Идентификатор : 4
    Формат : AC-3
    Формат/Информация : Audio Coding 3
    Расширение режима : CM (complete main)
    Параметр Endianness формата : Big
    Идентификатор кодека : A_AC3
    Продолжительность : 2 ч. 12 м.
    Вид битрейта : Постоянный
    Битрейт : 384 Кбит/сек
    Каналы : 6 каналов
    Расположение каналов : Front: L C R, Side: L R, LFE
    Частота : 48,0 КГц
    Битовая глубина : 16 бит
    Метод сжатия : С потерями
    Размер потока : 363 Мбайт (4%)
    Заголовок : VO (VANO)
    Язык : Russian
    Default : Нет
    Forced : Нет

    Аудио #4
    Идентификатор : 5
    Формат : DTS
    Формат/Информация : Digital Theater Systems
    Режим : 16
    Параметр Endianness формата : Big
    Идентификатор кодека : A_DTS
    Продолжительность : 2 ч. 12 м.
    Вид битрейта : Постоянный
    Битрейт : 1509 Кбит/сек
    Каналы : 6 каналов
    Расположение каналов : Front: L C R, Side: L R, LFE
    Частота : 48,0 КГц
    Битовая глубина : 24 бит
    Метод сжатия : С потерями
    Размер потока : 1,39 Гбайт (14%)
    Язык : English
    Default : Нет
    Forced : Нет

    Текст #1
    Идентификатор : 6
    Формат : UTF-8
    Идентификатор кодека : S_TEXT/UTF8
    Идентификатор кодека/Информация : UTF-8 Plain Text
    Язык : Russian
    Default : Нет
    Forced : Нет

    Текст #2
    Идентификатор : 7
    Формат : UTF-8
    Идентификатор кодека : S_TEXT/UTF8
    Идентификатор кодека/Информация : UTF-8 Plain Text
    Язык : English
    Default : Нет
    Forced : Нет

    Скриншоты для ознакомления:



    Размер скачиваемого торрента: 9.74 GB (10457715741 Bytes)

    Дворецкий / The Butler (2013) BDRip 720p от New-Team | P, L2, L1 | лицензия скачать через торрент бесплатно
    загрузка...
    Рейтинг →
     (голосов: 1, оценка 4/5, голосовать можно 1 раз )

    Другие торренты по теме:

  • Темный дворецкий / Kuroshitsuji II / Dark Butler (2010) BDRip 720p от FilmRus торрент скачать бесплатно
  • Дворецкий / The Butler (2013) BDRip 1080p | L1 торрент скачать бесплатно
  • Дворецкий / The Butler (2013) BDRip 720p | L1 торрент скачать бесплатно
  • Дворецкий / The Butler (2013) HDRip | L1 торрент скачать бесплатно
  • Дворецкий / The Butler (2013) HDRip от Scarabey торрент скачать бесплатно
  • Дворецкий / The Butler (2013) BDRip 720p от Leonardo and Scarabey | L1 скачать через торрент бесплатно
  • Дворецкий / The Butler (2013) HDRip | L2 торрент скачать бесплатно
  • Дворецкий / The Butler (2013) HDRip-AVC | L2 скачать через торрент бесплатно


    • Комментарии (0):

      Информация

      Информация

        Посетители, находящиеся в группе Гости, не могут оставлять комментарии в данной новости.

        ↓ Меню



        ↓ Опрос

        А Вы добавили сайт в закладки?
        Да
        Не


        Top 10 за неделю (Фильмы)