.
Авторизация | Регистрация
Хочешь лучшие торренты? Добавь свой email!
Добавить
» » Заговор / Le complot (1973) DVDRip | L1 скачать через торрент бесплатно




    Заговор / Le complot (1973) DVDRip | L1 скачать через торрент бесплатно

    Опубликовал: Админ | Дата: 27-02-2015, 11:10 | Просмотров: 271




    Снималось в: Франция, Италия, Испания
    Создали в: 14 Luglio Cinematografica, Eguiluz Films, Les Productions FDL, Productions Simone Allouche
    Категория жанра: Боевик, драма
    Создали в: 1973
    Время просмотра: 01:52:51
    Перевод текста: Любительский одноголосый закадровый
    Оригинальная аудиодорожка: Французская
    Главный режиссер: Рене Гейнвиль
    Актеры: Жан Рошфор, Мишель Буке, Марина Влади, Мишель Дюшоссуа, Раймон Пеллегрен, Габриэле Тинти, Раймон Жером, Морис Биро, Анхель дель Позо, Симон Андреу

    Сюжет: Начало 1960-х. Секретная Вооруженная Организация (ОАС) предпринимает отчаянные попытки помешать де Голлю освободить Алжир от господства метрополии. Небольшая группа военных крадет оружие и грабит банк, готовя побег генерала Шалля из Тюльской тюрьмы. Предполагается, что это спровоцирует гражданскую войну. Члены ОАС, внедренные в полицию, оказывают мятежникам посильную помощь. Операцию ОАС возглавляет орденоносный майор Клаве, противостоять которому приходится ставленнику правительства Паро и полицейскому Лелонгу. Командование операцией - дело чести для Клаве, но он не в силах контролировать события, вследствие чего начинается серия кровопролитных терактов. Полиция проводит задержания и закручивает гайки, выжимая все возможное из информаторов... Но осталась ли хоть одна капля чести в этом гиблом деле?



    Исходник: DVD9 R1

    Тип релиза: DVDRip

    Контейнер: AVI

    Информация о видео: XviD, 2184 Кбит/с, 704х416
    Информация о звуке: Русский, французский (АС3, 2 ch, 192 Кбит/с)

    MediaInfo
    Общее
    Полное имя : D:1АААЗаговор.avi
    Формат : AVI
    Формат/Информация : Audio Video Interleave
    Профиль формата : OpenDML
    Размер файла : 2,04 Гбайт
    Продолжительность : 1 ч. 52 м.
    Общий поток : 2586 Кбит/сек
    Программа кодирования : VirtualDubMod 1.5.10.2 (build 2540/release)
    Библиотека кодирования : VirtualDubMod build 2540/release

    Видео
    Идентификатор : 0
    Формат : MPEG-4 Visual
    Профиль формата : Advanced Simple@L5
    Параметр BVOP формата : 2
    Параметр QPel формата : Нет
    Параметр GMC формата : Без точки перехода
    Параметр матрицы формата : Default (MPEG)
    Идентификатор кодека : XVID
    Идентификатор кодека/Подсказка : XviD
    Продолжительность : 1 ч. 52 м.
    Битрейт : 2184 Кбит/сек
    Ширина : 704 пикселя
    Высота : 416 пикселей
    Соотношение сторон : 1,692
    Частота кадров : 23,976 кадра/сек
    Цветовое пространство : YUV
    Субдискретизация насыщенности : 4:2:0
    Битовая глубина : 8 бит
    Тип развёртки : Прогрессивная
    Метод сжатия : С потерями
    Бит/(Пиксели*Кадры) : 0.311
    Размер потока : 1,72 Гбайт (84%)
    Библиотека кодирования : XviD 1.2.1 (UTC 2008-12-04)

    Аудио #1
    Идентификатор : 1
    Формат : AC-3
    Формат/Информация : Audio Coding 3
    Расширение режима : CM (complete main)
    Параметр Endianness формата : Big
    Идентификатор кодека : 2000
    Продолжительность : 1 ч. 52 м.
    Вид битрейта : Постоянный
    Битрейт : 192 Кбит/сек
    Каналы : 2 канала
    Расположение каналов : Front: L R
    Частота : 48,0 КГц
    Битовая глубина : 16 бит
    Метод сжатия : С потерями
    Размер потока : 155 Мбайт (7%)
    Выравнивание : Разделение по промежуткам
    Продолжительность промежутка : 42 мс. (1,00 видеокадр)
    Время предзагрузки промежутка : 500 мс.

    Аудио #2
    Идентификатор : 2
    Формат : AC-3
    Формат/Информация : Audio Coding 3
    Расширение режима : CM (complete main)
    Параметр Endianness формата : Big
    Идентификатор кодека : 2000
    Продолжительность : 1 ч. 52 м.
    Вид битрейта : Постоянный
    Битрейт : 192 Кбит/сек
    Каналы : 2 канала
    Расположение каналов : Front: L R
    Частота : 48,0 КГц
    Битовая глубина : 16 бит
    Метод сжатия : С потерями
    Размер потока : 155 Мбайт (7%)
    Выравнивание : Разделение по промежуткам
    Продолжительность промежутка : 42 мс. (1,00 видеокадр)
    Время предзагрузки промежутка : 500 мс.




    Скриншоты для ознакомления




    Релиз группа:
    Автор рипа:
    Залил: YArl
    Размер скачиваемого торрента: 2.04 GB (2189125632 Bytes)

    Заговор / Le complot (1973) DVDRip | L1 скачать через торрент бесплатно
    загрузка...
    Рейтинг →
     (голосов: 1, оценка 3/5, голосовать можно 1 раз )

    Другие торренты по теме:

  • Познавательное ТВ: Измена в Ватикане - Заговор против христианства (2013) HDTVRip
  • Познавательное ТВ: Измена в Ватикане - Заговор против христианства (2013) HDTV 720p
  • Аллен Карр - Никотиновый заговор (Scandal) (2007) DOC
  • Аллен Карр - Никотиновый заговор (Scandal) (2007) (2012) mp3
  • Би Муви: медовый заговор / Bee Movie (2007) DVD5
  • Познавательное ТВ: Измена в Ватикане - Заговор против христианства (2013) HDRip
  • Заговор / Shadow of Doubt (1997) DVD5 | A, P
  • Семейный заговор / Family Plot (1976) HDTVRip-AVC от Тorrent-Хzona


    • Комментарии (0):

      Информация

      Информация

        Посетители, находящиеся в группе Гости, не могут оставлять комментарии в данной новости.

        ↓ Меню



        ↓ Опрос

        А Вы добавили сайт в закладки?
        Да
        Не


        Top 10 за месяц (Фильмы)