.
Авторизация | Регистрация
Хочешь лучшие торренты? Добавь свой email!
Добавить
» » Тумстоун: Легенда дикого запада / Tombstone (1993) DVD-9 скачать через торрент бесплатно




    Тумстоун: Легенда дикого запада / Tombstone (1993) DVD-9 скачать через торрент бесплатно

    Опубликовал: Админ | Дата: 27-02-2015, 11:10 | Просмотров: 203




    Детально о кино
    Русское название: Тумстоун: Легенда дикого запада
    Русское название в мировом прокате: Tombstone
    Создали в: 1993
    Категория жанра: Вестерн
    Главный режиссер: Джордж П. Косматос
    Актеры: Курт Расселл, Вэл Килмер, Майкл Бин, Пауэрс Бут, Роберт Джон Бёрк, Дэна Дилэйни, Сэм Эллиотт, Стивен Лэнг, Джоанна Пакула, Билл Пэкстон, Билли Зейн

    Сюжет фильма: 1871 год. В США закончилась гражданская война. Фермеры, грабители, золотоискатели, убийцы, воры — все отправились на поиски состояний. Нам расскажут легенду о шерифе Эрпе, который отказался от своей работы, чтобы начать нормальную жизнь со своей семьей. Его друг Док Холлидей, южанин и игрок, тоже решил зажить нормальной жизнью. В городе Тумстоун нашли месторождение серебра, началась серебряная лихорадка. Там и решили они осесть. Но в то же время там же организовалась жестокая и огромная банда убийц.



    Снималось в: США
    Киностудия: Cinergi Pictures Entertainment Inc., Hollywood Pictures
    Время просмотра: 02:04:01
    Перевод текста: Профессиональный двухголосый, авторский
    Субтитры: Голландский


    Файл
    Кодек для видео: MPEG-2
    Качество фильма: DVD-9
    Информация о видео: PAL 4:3 (720x576) VBR
    Информация о звуке: Русский, английский (Dolby AC3, 2 ch), английский (Dolby AC3, 6 ch)

    Перевод

    1. Английский (Dolby AC3, 6 ch)
    2. Английский (Dolby AC3, 2 ch)
    3. Профессиональный двухголосый (Гланц и Королева) (Dolby AC3, 2 ch)
    4. Авторский (Гаврилов) (Dolby AC3, 2 ch)
    5. Авторский (Живов) (Dolby AC3, 2 ch)
    6. Авторский (Карцев) (Dolby AC3, 2 ch)
    Меню
    DVDInfo
    Title: Локальный диск
    Size: 5.02 Gb ( 5 266 938 KBytes ) - DVD-9
    Enabled regions: 1, 2, 3, 4, 5, 6

    VTS_01 :
    Play Length: 02:03:52+00:00:06+00:00:02+00:00:01
    Video: PAL 4:3 (720x576) VBR
    Audio:
    English (Dolby AC3, 6 ch)
    English (Dolby AC3, 2 ch)
    Russian (Dolby AC3, 2 ch)
    Russian (Dolby AC3, 2 ch)
    Russian (Dolby AC3, 2 ch)
    Russian (Dolby AC3, 2 ch)
    Russian (Dolby AC3, 2 ch)
    Subtitles:
    Nederlands

    Menu Video:
    PAL 4:3 (720x576) VBR
    Menu Audio:
    Not specified (Dolby AC3, 2 ch)
    Menu Subtitles:
    Not specified
    Menu English Language Unit :
    Root Menu


    MediaInfo
    Общее
    Полное имя : D:1АААТУМСТОУНVIDEO_TSVTS_01_1.VOB
    Формат : MPEG-PS
    Размер файла : 1024 Мбайт
    Продолжительность : 23 м.
    Режим общего битрейта : Переменный
    Общий поток : 6084 Кбит/сек

    Видео
    Идентификатор : 224 (0xE0)
    Формат : MPEG Video
    Версия формата : Version 2
    Профиль формата : Main@Main
    Параметр BVOP формата : Да
    Параметр матрицы формата : По умолчанию
    Параметр GOP формата : M=3, N=13
    Продолжительность : 23 м.
    Вид битрейта : Переменный
    Битрейт : 4331 Кбит/сек
    Максимальный битрейт : 8500 Кбит/сек
    Ширина : 720 пикселей
    Высота : 576 пикселей
    Соотношение сторон : 4:3
    Частота кадров : 25,000 кадров/сек
    Стандарт вещания : PAL
    Цветовое пространство : YUV
    Субдискретизация насыщенности : 4:2:0
    Битовая глубина : 8 бит
    Тип развёртки : Чересстрочная
    Порядок развёртки : Верхнее поле первое
    Метод сжатия : С потерями
    Бит/(Пиксели*Кадры) : 0.418
    TimeCode_FirstFrame : 01:00:13:00
    TimeCode_Source : Group of pictures t_head
    Размер потока : 729 Мбайт (71%)
    Основные цвета : BT.601 PAL
    Характеристики трансфера : BT.470 System B, BT.470 System G
    Коэффициенты матрицы : BT.601

    Аудио #1
    Идентификатор : 189 (0xBD)-128 (0x80)
    Формат : AC-3
    Формат/Информация : Audio Coding 3
    Расширение режима : CM (complete main)
    Параметр Endianness формата : Big
    Режим смешивания : DVD-Video
    Продолжительность : 23 м.
    Вид битрейта : Постоянный
    Битрейт : 448 Кбит/сек
    Каналы : 6 каналов
    Расположение каналов : Front: L C R, Side: L R, LFE
    Частота : 48,0 КГц
    Битовая глубина : 16 бит
    Метод сжатия : С потерями
    Размер потока : 75,4 Мбайт (7%)

    Аудио #2
    Идентификатор : 189 (0xBD)-129 (0x81)
    Формат : AC-3
    Формат/Информация : Audio Coding 3
    Расширение режима : CM (complete main)
    Параметр Endianness формата : Big
    Режим смешивания : DVD-Video
    Продолжительность : 23 м.
    Вид битрейта : Постоянный
    Битрейт : 224 Кбит/сек
    Каналы : 2 канала
    Расположение каналов : Front: L R
    Частота : 48,0 КГц
    Битовая глубина : 16 бит
    Метод сжатия : С потерями
    Размер потока : 37,7 Мбайт (4%)

    Аудио #3
    Идентификатор : 189 (0xBD)-130 (0x82)
    Формат : AC-3
    Формат/Информация : Audio Coding 3
    Расширение режима : CM (complete main)
    Параметр Endianness формата : Big
    Режим смешивания : DVD-Video
    Продолжительность : 23 м.
    Вид битрейта : Постоянный
    Битрейт : 192 Кбит/сек
    Каналы : 2 канала
    Расположение каналов : Front: L R
    Частота : 48,0 КГц
    Битовая глубина : 16 бит
    Метод сжатия : С потерями
    Размер потока : 32,3 Мбайт (3%)

    Аудио #4
    Идентификатор : 189 (0xBD)-131 (0x83)
    Формат : AC-3
    Формат/Информация : Audio Coding 3
    Расширение режима : CM (complete main)
    Параметр Endianness формата : Big
    Режим смешивания : DVD-Video
    Продолжительность : 23 м.
    Вид битрейта : Постоянный
    Битрейт : 192 Кбит/сек
    Каналы : 2 канала
    Расположение каналов : Front: L R
    Частота : 48,0 КГц
    Битовая глубина : 16 бит
    Метод сжатия : С потерями
    Размер потока : 32,3 Мбайт (3%)

    Аудио #5
    Идентификатор : 189 (0xBD)-132 (0x84)
    Формат : AC-3
    Формат/Информация : Audio Coding 3
    Расширение режима : CM (complete main)
    Параметр Endianness формата : Big
    Режим смешивания : DVD-Video
    Продолжительность : 23 м.
    Вид битрейта : Постоянный
    Битрейт : 192 Кбит/сек
    Каналы : 2 канала
    Расположение каналов : Front: L R
    Частота : 48,0 КГц
    Битовая глубина : 16 бит
    Метод сжатия : С потерями
    Размер потока : 32,3 Мбайт (3%)

    Аудио #6
    Идентификатор : 189 (0xBD)-133 (0x85)
    Формат : AC-3
    Формат/Информация : Audio Coding 3
    Расширение режима : CM (complete main)
    Параметр Endianness формата : Big
    Режим смешивания : DVD-Video
    Продолжительность : 23 м.
    Вид битрейта : Постоянный
    Битрейт : 192 Кбит/сек
    Каналы : 2 канала
    Расположение каналов : Front: L R
    Частота : 48,0 КГц
    Битовая глубина : 16 бит
    Метод сжатия : С потерями
    Размер потока : 32,3 Мбайт (3%)

    Аудио #7
    Идентификатор : 189 (0xBD)-134 (0x86)
    Формат : AC-3
    Формат/Информация : Audio Coding 3
    Расширение режима : CM (complete main)
    Параметр Endianness формата : Big
    Режим смешивания : DVD-Video
    Продолжительность : 23 м.
    Вид битрейта : Постоянный
    Битрейт : 192 Кбит/сек
    Каналы : 2 канала
    Расположение каналов : Front: L R
    Частота : 48,0 КГц
    Битовая глубина : 16 бит
    Метод сжатия : С потерями
    Размер потока : 32,3 Мбайт (3%)

    Меню


    Скриншоты для ознакомления

    Залил: YArl
    Размер скачиваемого торрента: 5.02 GB (5393344512 Bytes)

    Тумстоун: Легенда дикого запада / Tombstone (1993) DVD-9 скачать через торрент бесплатно
    загрузка...
    Рейтинг →
     (голосов: 1, оценка 5/5, голосовать можно 1 раз )

    Другие торренты по теме:

  • Тумстоун: Легенда дикого запада / Tombstone (1993) HDRip от Scarabey | Р2
  • Тумстоун: Легенда дикого запада / Tombstone (1993) BDRip-AVC от MediaClub | P2, А
  • Тумстоун: Легенда дикого запада / Tombstone (1993) BDRip 1080p от denis 100 | P1, P2
  • Тумстоун: Легенда дикого запада / Tombstone (1993) BDRip 720p от denis 100 | A скачать через торрент бесплатно
  • Тумстоун: Легенда дикого запада / Tombstone (1993) BDRemux 1080p | P, A


    • Комментарии (0):

      Информация

      Информация

        Посетители, находящиеся в группе Гости, не могут оставлять комментарии в данной новости.

        ↓ Меню



        ↓ Опрос

        А Вы добавили сайт в закладки?
        Да
        Не


        Top 10 за месяц (Фильмы)