.
Авторизация | Регистрация
Хочешь лучшие торренты? Добавь свой email!
Добавить
» » Дворецкий / The Butler (2013) BDRip от New-Team | P | лицензия скачать через торрент бесплатно




    Дворецкий / The Butler (2013) BDRip от New-Team | P | лицензия скачать через торрент бесплатно

    Опубликовал: Админ | Дата: 27-02-2015, 11:10 | Просмотров: 196

    One quiet voice can ignite a revolution



    Снималось в: США / AI-Film, Follow Through Productions, Laura Ziskin Productions, Lee Daniels Entertainment, Pam Williams Productions, Salamander Pictures, Windy Hill Pictures

    Категория жанра: драма, биография
    Создали в: 2013
    Время просмотра: 02:12:06

    Перевод текста: Профессиональный (многоголосый закадровый)
    Субтитры подготовлены: нет
    Оригинальная аудиодорожка: нет

    Главный режиссер: Ли Дэниелс / Lee Daniels

    Актеры: Форест Уитакер, Опра Уинфри, Кьюба Гудинг мл., Дэвид Ойелоуо, Терренс Ховард, Робин Уильямс, Лив Шрайбер, Алан Рикман, Джон Кьюсак, Дэвид Баннер...

    Сюжет: В фильме, основанном на статье из Washington Post, рассказывается о дворецком Юджине Аллене, служившем в Белом Доме под началом восьми разных президентов.



    Качество фильма: BDRip / BDRemux 1080p + DVD9 R5 от Lizard Cinema Trade
    Тип видео: AVI

    Информация о видео: 720x384 (1.85:1), 23.976 fps, XViD ~ 1442 kbps avg, 0.217 bit/pixel
    Информация о звуке: 48 kHz, MP3, 2 ch, 128 kbps, русский

    Раздача от:
    MediaInfo

    Общее
    Полное имя : Dvoretskiy.2013.P.DVDRip_New-Team_by_avproh.avi
    Формат : AVI
    Формат/Информация : Audio Video Interleave
    Размер файла : 1,46 Гбайт
    Продолжительность : 2 ч. 12 м.
    Общий поток : 1579 Кбит/сек
    Программа кодирования : VirtualDubModRus 1.5.10.2 (build 2542/release)
    Библиотека кодирования : VirtualDubMod build 2542/release

    Видео
    Идентификатор : 0
    Формат : MPEG-4 Visual
    Профиль формата : Advanced Simple@L5
    Параметр BVOP формата : 1
    Параметр QPel формата : Нет
    Параметр GMC формата : Без точки перехода
    Параметр матрицы формата : Выборочная
    Идентификатор кодека : XVID
    Идентификатор кодека/Подсказка : XviD
    Продолжительность : 2 ч. 12 м.
    Битрейт : 1442 Кбит/сек
    Ширина : 720 пикселей
    Высота : 384 пикселя
    Соотношение сторон : 1,85:1
    Частота кадров : 23,976 кадра/сек
    Цветовое пространство : YUV
    Субдискретизация насыщенности : 4:2:0
    Битовая глубина : 8 бит
    Тип развёртки : Прогрессивная
    Метод сжатия : С потерями
    Бит/(Пиксели*Кадры) : 0.217
    Размер потока : 1,33 Гбайт (91%)
    Библиотека кодирования : XviD 73

    Аудио
    Идентификатор : 1
    Формат : MPEG Audio
    Версия формата : Version 1
    Профиль формата : Layer 3
    Режим : Joint stereo
    Расширение режима : MS Stereo
    Идентификатор кодека : 55
    Идентификатор кодека/Подсказка : MP3
    Продолжительность : 2 ч. 12 м.
    Вид битрейта : Постоянный
    Битрейт : 128 Кбит/сек
    Каналы : 2 канала
    Частота : 48,0 КГц
    Метод сжатия : С потерями
    Размер потока : 121 Мбайт (8%)
    Выравнивание : Соединение по промежуткам
    Продолжительность промежутка : 42 мс. (1,00 видеокадр)
    Время предзагрузки промежутка : 504 мс.

    Скриншоты для ознакомления:



    Размер скачиваемого торрента: 1.46 GB (1564258304 Bytes)

    Дворецкий / The Butler (2013) BDRip от New-Team | P | лицензия скачать через торрент бесплатно
    загрузка...
    Рейтинг →
     (голосов: 1, оценка 5/5, голосовать можно 1 раз )

    Другие торренты по теме:

  • Темный дворецкий / Kuroshitsuji II / Dark Butler (2010) BDRip 720p от FilmRus
  • Дворецкий / The Butler (2013) BDRip 1080p | L1
  • Дворецкий / The Butler (2013) BDRip 720p | L1
  • Дворецкий / The Butler (2013) HDRip | L1
  • Дворецкий / The Butler (2013) HDRip от Scarabey
  • Дворецкий / The Butler (2013) BDRip 720p от Leonardo and Scarabey | L1 скачать через торрент бесплатно
  • Дворецкий / The Butler (2013) HDRip | L2
  • Дворецкий / The Butler (2013) HDRip-AVC | L2 скачать через торрент бесплатно


    • Комментарии (0):

      Информация

      Информация

        Посетители, находящиеся в группе Гости, не могут оставлять комментарии в данной новости.

        ↓ Меню



        ↓ Опрос

        А Вы добавили сайт в закладки?
        Да
        Не


        Top 10 за месяц (Фильмы)