.
Авторизация | Регистрация
Хочешь лучшие торренты? Добавь свой email!
Добавить
» » Великолепный век. Тайный мир. Фильм о фильме / Muhtesem Yuzyil. Gizli Dnya (2014) HDTVRip | L1 скачать через торрент бесплатно




    Великолепный век. Тайный мир. Фильм о фильме / Muhtesem Yuzyil. Gizli Dnya (2014) HDTVRip | L1 скачать через торрент бесплатно

    Опубликовал: Админ | Дата: 27-02-2015, 11:10 | Просмотров: 362



    Детально о кино
    Русское название: Великолепный век. Тайный мир. Фильм о фильме
    Русское название в мировом прокате: Muhtesem Yuzyil. Gizli D?nya
    Создали в: 2013
    Категория жанра: Документальный, фильм о фильме
    Главный режиссер: Дурул Тайлан / Durul Taylan, Ягмур Тайлан / Yagmur Taylan
    Актеры: Небахат Чехре /Nebahat ?ehre/, Окан Ялабик /Okan Yalabik/, Сельма Эргеч /Selma Erge?/, Халит Эргенч /Halit Ergen?/, Филиз Ахмет /Filiz Ahmet/

    Сюжет фильма:
    Если вы мечтаете заглянуть за кулисы сериала Великолепный век и узнать, как он снимался, как проходил кастинг актёров, где и как проходили съемки, какие трудности возникали в процессе создания сериала, то этот фильм именно для вас! Вас ждет увлекательное путешествие в мир кино – эксклюзивные интервью с создателями и актерами, репортажи со съемочной площадки и многое другое.

    Содержание:
    01. Декор, костюмы, украшения


    Снималось в: Турция
    Время просмотра: ~ 50 минут серия
    Перевод текста: Любительский (одноголосый, закадровый) turok1990

    Файл
    Кодек для видео: XviD / MP3
    Качество фильма: HDTVRip
    Информация о видео: MPEG4, XviD, 720x400 (16:9), 25.000 fps, 1 700 Kbps (0.236 bit/pixel)
    Информация о звуке: MP3, 44.1 KHz, 2 ch, 192 Kbps, CBR

    Скриншоты для ознакомления
    Скриншоты для ознакомления: повтор
    MediaInfo
    General
    Complete name : /Великолепный век. Тайный мир/Великолепный век.Тайный мир.01.avi
    Format : AVI
    Format/Info : Audio Video Interleave
    File size : 667 MiB
    Duration : 49mn 3s
    Overall bit rate : 1 902 Kbps
    Writing application : VirtualDubMod 1.5.10.3 | www.virtualdub-fr.org || (build 2550/release)
    Writing library : VirtualDub build 32842/release

    Video
    ID : 0
    Format : MPEG-4 Visual
    Format profile : Advanced Simple@L5
    Format settings, BVOP : 2
    Format settings, QPel : No
    Format settings, GMC : No warppoints
    Format settings, Matrix : Default (H.263)
    Codec ID : XVID
    Codec ID/Hint : XviD
    Duration : 49mn 3s
    Bit rate : 1 700 Kbps
    Width : 720 pixels
    Height : 400 pixels
    Display aspect ratio : 16:9
    Frame rate : 25.000 fps
    Color space : YUV
    Chroma subsampling : 4:2:0
    Bit depth : 8 bits
    Scan type : Progressive
    Compression mode : Lossy
    Bits/(Pixel*Frame) : 0.236
    Stream size : 596 MiB (89%)
    Writing library : XviD 1.2.1 (UTC 2008-12-04)

    Audio
    ID : 1
    Format : MPEG Audio
    Format version : Version 1
    Format profile : Layer 3
    Codec ID : 55
    Codec ID/Hint : MP3
    Duration : 49mn 2s
    Bit rate mode : Constant
    Bit rate : 192 Kbps
    Channel(s) : 2 channels
    Sampling rate : 44.1 KHz
    Compression mode : Lossy
    Stream size : 67.4 MiB (10%)
    Alignment : Split accross interleaves
    Interleave, duration : 40 ms (1.00 video frame)
    Interleave, preload duration : 500 ms
    Writing library : L3.99r
    Encoding settings : -m s -V 4 -q 2 -lowpass 18.6 -b 192
    Раздача ведётся путём добавления новых серий
    Раздача ведётся путём добавления новых серий; при каждом добавлении создаётся новый торрент. Чтобы начать докачку новой серии, пользователям необходимо сделать следующее:
    (1) остановить скачивание,
    (2) удалить старый торрент у себя из клиента (старые серии удалять не надо),
    (3) скачать новый торрент и запустить его у себя в клиенте вместо старого, при этом указать клиенту путь в старую папку куда и должно происходить скачивание новых серий.

    Ваш клиент при этом должен произвести хеширование (проверку) старой папки (если не производит сам - помогите ему сделать это), и будет докачивать только те серии которых у вас ещё нет. Старые серии при этом не удаляются, а продолжают раздаваться!

    Eсли вы уже удалили старые серии, то предотвратить повторную закачку старых серий можно, отжав галочку в соответствующих местах при запуске нового торрента. По возможности, желательно не удалять старые серии как можно дольше чтобы релизёр не столько продолжал раздавать старые серии, а смог сконцентрироваться на новых.

    Размер скачиваемого торрента: 667.22 MB (699630218 Bytes)

    Великолепный век. Тайный мир. Фильм о фильме / Muhtesem Yuzyil. Gizli Dnya (2014) HDTVRip | L1 скачать через торрент бесплатно
    загрузка...
    Рейтинг →
     (голосов: 1, оценка 4/5, голосовать можно 1 раз )

    Другие торренты по теме:

  • Великолепный век / Muhtesem Yzyil (2011-2012) HDTVRip | L1
  • Великолепный век. Создание легенды / Muhtesem Yuzyl. Yapim Belgeseli (2013) WEB-DLRip
  • OST - Великолепный век / Muhteem Yzyl / Muhtesem Yuzyil - Vol 1 (2013) MP3
  • Великолепный век / Muhtesem Yzyil (2012-2013) WEBDLRip | D
  • Великолепный век / Muhtesem Yzyil (2013) WEB-DLRip | L1 скачать через торрент бесплатно
  • Великолепный век / Muhtesem Yzyil (2013) SATRip | L1
  • Великолепный век / Muhtesem Yuzyil (2013) TVRip | L1 скачать через торрент бесплатно
  • Великолепный век / Muhtesem Yuzyil (2011-2013) WEB-DLRip | ТК Домашний скачать через торрент бесплатно


    • Комментарии (0):

      Информация

      Информация

        Посетители, находящиеся в группе Гости, не могут оставлять комментарии в данной новости.

        ↓ Меню



        ↓ Опрос

        А Вы добавили сайт в закладки?
        Да
        Не


        Top 10 за месяц (Фильмы)