.
Авторизация | Регистрация
» » Огонь в небе / Fire in the Sky (1993) WEB-DLRip от Leon-masl | P торрент скачать бесплатно




    Огонь в небе / Fire in the Sky (1993) WEB-DLRip от Leon-masl | P торрент скачать бесплатно

    Опубликовал: Админ | Дата: 27-02-2015, 11:10 | Просмотров: 214



    Детально о кино
    Русское название: Огонь в небе
    Русское название в мировом прокате: Fire in the Sky
    Создали в: 1993
    Категория жанра: ужасы, фантастика, драма, детектив
    Главный режиссер: Роберт Либерман
    Актеры: Д.Б. Суини, Роберт Патрик, Крэйг Шеффер, Питер Берг, Генри Томас, Брэдли Грегг, Ноубл Уиллингэм, Кэтлин Уилхойт, Джеймс Гарнер, Джорджия Эмелин

    Сюжет фильма:
    Однажды, осенним вечером, группа лесорубов, трудившихся в чаще северо-восточной части штата Аризона, заметила необычайно яркий источник света. Любопытные работяги, среди которых был и Тревис Уолтон, решили рассмотреть странный огонь вблизи. Это и явилось их роковой ошибкой. Тревис Уолтон исчез на глазах своих товарищей.

    Парализованные ужасом, лесорубы сообщили, что несчастного похитил НЛО. Но этим людям не поверили и начали подозревать их в убийстве. Местные власти объявили официальный розыск Тревиса Уолтона. Полиция совместно с отрядами гражданской обороны день и ночь прочесывала окрестности. Однако попытки найти пропавшего рабочего были тщетны.




    Снималось в: США
    Время просмотра: 01:49:19
    Перевод текста: Профессиональный Многоголосый закадровый |iTunes Russia|

    Файл
    Кодек для видео: Xvid
    Качество фильма: WEB-DLRip
    Информация о видео: 720x304, 23,976 fps, 1673 kbps
    Информация о звуке: AC-3, 2 ch, 192 kbps
    MI
    Общее
    Полное имя : Fire.in.the.Sky.1993.WEB-DLRip.avi
    Формат : AVI
    Формат/Информация : Audio Video Interleave
    Размер файла : 1,43 Гбайт
    Продолжительность : 1 ч. 49 м.
    Общий поток : 1874 Кбит/сек
    Программа кодирования : VirtualDubMod 1.5.10.3 | www.virtualdub-fr.org || (build 2550/release)
    Библиотека кодирования : VirtualDubMod build 2550/release

    Видео
    Идентификатор : 0
    Формат : MPEG-4 Visual
    Профиль формата : Advanced Simple@L5
    Параметр BVOP формата : 1
    Параметр QPel формата : Нет
    Параметр GMC формата : Без точки перехода
    Параметр матрицы формата : Выборочная
    Идентификатор кодека : XVID
    Идентификатор кодека/Подсказка : XviD
    Продолжительность : 1 ч. 49 м.
    Битрейт : 1673 Кбит/сек
    Ширина : 720 пикс.
    Высота : 304 пикс.
    Соотношение сторон : 2,35:1
    Частота кадров : 23,976 кадр/сек
    Цветовое пространство : YUV
    Подвыборка цветности : 4:2:0
    Битовая глубина : 8 бит
    Тип развёртки : Прогрессивная
    Метод сжатия : С потерями
    Бит/(Пиксели*Кадры) : 0.319
    Размер потока : 1,28 Гбайт (89%)
    Библиотека кодирования : XviD 73

    Аудио
    Идентификатор : 1
    Формат : AC-3
    Формат/Информация : Audio Coding 3
    Расширение режима : CM (complete main)
    Идентификатор кодека : 2000
    Продолжительность : 1 ч. 49 м.
    Вид битрейта : Постоянный
    Битрейт : 192 Кбит/сек
    Канал(ы) : 2 канала(ов)
    Расположение каналов : Front: L R
    Частота : 48,0 КГц
    Битовая глубина : 16 бит
    Метод сжатия : С потерями
    Размер потока : 150 Мбайт (10%)
    Выравнивание : Разделение по промежуткам
    Продолжительность промежутка : 42 мс. (1,00 видеокадр)
    Время предзагрузки промежутка : 500 ms
    Скриншоты для ознакомления


    Релиз подготовил: Leon-masl
    Залил: leon-masl
    Размер скачиваемого торрента: 1.43 GB (1536782336 Bytes)

    Огонь в небе / Fire in the Sky (1993) WEB-DLRip от Leon-masl | P торрент скачать бесплатно
    загрузка...
    Рейтинг →
     (голосов: 1, оценка 4/5, голосовать можно 1 раз )

    Другие торренты по теме:

  • Шквальный огонь / From the Hip (1987) DVDRip | L1 торрент скачать бесплатно
  • Дин Кунц - Холодный огонь (2010) (2013) MP3 торрент скачать бесплатно
  • Вне времени. Священный огонь Химба (2010) DVDRip-AVC от Тorrent-Хzona торрент скачать бесплатно
  • Секретные территории. Небесный огонь (2013) SATRip торрент скачать бесплатно
  • Ответный огонь / Backfire (1988) DVDRip | P торрент скачать бесплатно
  • Огонь смерти / Death and Cremation (2010) DVDRip от GalVid-Group | L торрент скачать бесплатно
  • Огонь в небе / Fire in the Sky (1993) DVDRip | P2 торрент скачать бесплатно
  • Тот, кто прошел сквозь огонь / Той хто пройшов крізь вогонь / Firecrosser (2011) DVD9 торрент скачать бесплатно


    • Комментарии (0):

      Информация

      Информация

        Посетители, находящиеся в группе Гости, не могут оставлять комментарии в данной новости.

        ↓ Меню



        ↓ Опрос

        А Вы добавили сайт в закладки?
        Да
        Не


        Top 10 за неделю (Фильмы)