.
Авторизация | Регистрация
» » 2 дня в Нью-Йорке / 2 Days in New York (2012) HDRip от New-Team | лицензия торрент скачать бесплатно




    2 дня в Нью-Йорке / 2 Days in New York (2012) HDRip от New-Team | лицензия торрент скачать бесплатно

    Опубликовал: Админ | Дата: 27-02-2015, 11:10 | Просмотров: 196


    Снималось в: Франция, Германия, Бельгия
    Создали в: Alvy Productions, BNP Paribas Fortis Film Fund, In Production
    Категория жанра: комедия
    Создали в: 2012
    Время просмотра: 01:35:44

    Перевод текста: Профессиональный (многоголосый закадровый)
    Оригинальная аудиодорожка: нет
    Субтитры подготовлены: нет

    Главный режиссер: Жюли Дельпи / Julie Delpy

    Актеры:
    Крис Рок, Жюли Дельпи, Альберт Дельпи, Алексия Ландо, Александр Наон, Кейт Бёртон, Дилан Бейкер, Даниэль Брюль, Тален Рут Райли, Оуэн Шипман...

    Сюжет:
    Марион, теперь счастливо живущая с Мингусом в их нью-йоркской квартире, нашла все, что ей было так необходимо, отношения, свой дом, успешную карьеру и себя саму в опасности, когда ее отец, сестра и экс-бойфренд решили к ним заглянуть из Франции…



    Исходник: BDRip 1080p
    Тип релиза: HDRip
    Контейнер: AVI

    Информация о видео: 704x384 (16:9), 25 fps, XviD ~ 951 kbps avg, 0.147 bit/pixel
    Информация о звуке: 48 kHz, MP3 2.0, 128 kbps
    MediaInfo

    Общее
    Полное имя : 2.dnja.v.N;ju-Jorke.2012.HDRip-745_Youtracker_by_AVP Studio.avi
    Формат : AVI
    Формат/Информация : Audio Video Interleave
    Размер файла : 745 Мбайт
    Продолжительность : 1 ч. 35 м.
    Общий поток : 1088 Кбит/сек
    Программа кодирования : VirtualDubModRus 1.5.10.2 (build 2542/release)
    Библиотека кодирования : VirtualDubMod build 2542/release

    Видео
    Идентификатор : 0
    Формат : MPEG-4 Visual
    Профиль формата : Advanced Simple@L5
    Параметр BVOP формата : 1
    Параметр QPel формата : Нет
    Параметр GMC формата : Без точки перехода
    Параметр матрицы формата : Выборочная
    Идентификатор кодека : XVID
    Идентификатор кодека/Подсказка : XviD
    Продолжительность : 1 ч. 35 м.
    Битрейт : 951 Кбит/сек
    Ширина : 704 пикселя
    Высота : 384 пикселя
    Соотношение сторон : 16:9
    Частота кадров : 24,000 кадра/сек
    Цветовое пространство : YUV
    Субдискретизация насыщенности : 4:2:0
    Битовая глубина : 8 бит
    Тип развёртки : Прогрессивная
    Метод сжатия : С потерями
    Бит/(Пиксели*Кадры) : 0.147
    Размер потока : 651 Мбайт (87%)
    Библиотека кодирования : XviD 65

    Аудио
    Идентификатор : 1
    Формат : MPEG Audio
    Версия формата : Version 1
    Профиль формата : Layer 3
    Режим : Joint stereo
    Расширение режима : MS Stereo
    Идентификатор кодека : 55
    Идентификатор кодека/Подсказка : MP3
    Продолжительность : 1 ч. 35 м.
    Вид битрейта : Постоянный
    Битрейт : 128 Кбит/сек
    Каналы : 2 канала
    Частота : 48,0 КГц
    Метод сжатия : С потерями
    Размер потока : 87,6 Мбайт (12%)
    Выравнивание : Соединение по промежуткам
    Продолжительность промежутка : 42 мс. (1,00 видеокадр)
    Время предзагрузки промежутка : 504 мс

    Скриншоты для ознакомления



    Залил: AVPStudio
    Размер скачиваемого торрента: 744.84 MB (781019136 Bytes)

    2 дня в Нью-Йорке / 2 Days in New York (2012) HDRip от New-Team | лицензия торрент скачать бесплатно
    загрузка...
    Рейтинг →
     (голосов: 1, оценка 3/5, голосовать можно 1 раз )

    Другие торренты по теме:

  • Средь бела дня / The Cold Light of Day (2012) HDRip-AVC торрент скачать бесплатно
  • Клуб выходного дня / Клуб Завтрак / The Breakfast Club (1985) BDRip-AVC | L1 торрент скачать бесплатно
  • Цикада восьмого дня / Youkame no semi / Rebirth (2011) DVDRip | L2 торрент скачать бесплатно
  • Три дня на побег / The Next Three Days (2010) HDRip-AVC торрент скачать бесплатно
  • Замуж на 2 дня / Un plan parfait (2012) BDRip 720p торрент скачать бесплатно
  • Книга судного дня / Doomsday Book / Inlyumyeolmangbogoseo (2012) BDRip | L2 торрент скачать бесплатно
  • В конце дня / Am Ende des Tages (2011) SATRip от RG MixTorrent | P2 торрент скачать бесплатно
  • Два дня в Париже / 2 Days in Paris (2007) BDRip от Rulya74 торрент скачать бесплатно


    • Комментарии (0):

      Информация

      Информация

        Посетители, находящиеся в группе Гости, не могут оставлять комментарии в данной новости.

        ↓ Меню



        ↓ Опрос

        А Вы добавили сайт в закладки?
        Да
        Не


        Top 10 за неделю (Фильмы)