.
Авторизация | Регистрация
» » Мотель / The Bag Man (2014) BDRemux 1080p от FireBit-Films | L2 скачать через торрент бесплатно




    Мотель / The Bag Man (2014) BDRemux 1080p от FireBit-Films | L2 скачать через торрент бесплатно

    Опубликовал: Админ | Дата: 27-02-2015, 11:10 | Просмотров: 201



    Детально о кино
    Русское название: Мотель / Сумка / Комната 13 / Человек с сумкой
    Русское название в мировом прокате: The Bag Man / Motel Room 13 / Motel
    Создали в: 2014
    Категория жанра: триллер, криминал
    Главный режиссер: Дэвид Гровик
    Актеры: Роберт Де Ниро, Джон Кьюсак, Ребекка Да Коста, Криспин Гловер, Доминик Пёрселл, Стикки Фингаз, Мартин Клебба, Дэвид Шамбрис, Чезз Менендес, Йен Маклафлин

    Сюжет фильма: Наемный убийца Джек Стаффорд получает несложное задание: приехать в заштатный мотель в 300 милях от Питтсбурга, получить сумку с таинственным содержимым и оставаться в номере, пока за грузом не приедут. Условие одно: ни при каких обстоятельствах не заглядывать внутрь сумки. Но поручение оказывается простым лишь на первый взгляд. Вскоре киллер понимает, что за доверенным ему предметом охотятся коррумпированные агенты ФБР, продажные полицейские, провинциальные гангстеры. И каждый хочет всадить в Джека пулю. Число жертв растет на глазах, и дожить до рассвета смогут далеко не все постояльцы мотеля.



    Снималось в: США
    Время просмотра: 01:48:39
    Перевод текста: Любительский (двухголосый, закадровый) - DeadSno den904

    Файл
    Качество фильма: BDRemux 1080p
    Тип видео: MKV
    Информация о видео: MPEG4/AVC, 1920х1080 (16:9), 30.8 Мбит/сек, 23.976 кадра/сек
    Информация о звуке 1: Rus, AC3, 448 Кбит/сек (6 каналов)
    Информация о звуке 2: Eng, AC3, 640 Кбит/сек (6 каналов)
    Информация о звуке 3: Eng, DTS, 1509 Кбит/сек (6 каналов)
    Субтитры: Русские, английские
    Навигация по главам: Есть

    MediaInfo:
    Общее
    Уникальный идентификатор : 217762947135823000506609423367041938463 (0xA3D39E399E5AA72BB09594595903741F)
    Полное имя : The Bag Man. (2014) BDRemux 1080p.mkv
    Формат : Matroska
    Версия формата : Version 2
    Размер файла : 25,9 Гбайт
    Продолжительность : 1 ч. 48 м.
    Режим общего битрейта : Переменный
    Общий поток : 34,1 Мбит/сек
    Название фильма : The Bag Man. 2014
    Дата кодирования : UTC 2014-05-26 19:04:52
    Программа кодирования : mkvmerge v5.8.0 (;No Sleep / Pillow;) built on Sep 2 2012 15:37:04
    Библиотека кодирования : libebml v1.2.3 + libmatroska v1.3.0

    Видео
    Идентификатор : 1
    Формат : AVC
    Формат/Информация : Advanced Video Codec
    Профиль формата : High@L4.1
    Параметр CABAC формата : Да
    Параметр ReFrames формата : 4 кадра
    Идентификатор кодека : V_MPEG4/ISO/AVC
    Продолжительность : 1 ч. 48 м.
    Вид битрейта : Переменный
    Битрейт : 30,8 Мбит/сек
    Максимальный битрейт : 35,0 Мбит/сек
    Ширина : 1920 пикселей
    Высота : 1080 пикселей
    Соотношение сторон : 16:9
    Режим частоты кадров : Постоянный
    Частота кадров : 23,976 кадра/сек
    Цветовое пространство : YUV
    Субдискретизация насыщенности : 4:2:0
    Битовая глубина : 8 бит
    Тип развёртки : Прогрессивная
    Бит/(Пиксели*Кадры) : 0.620
    Размер потока : 23,4 Гбайт (90%)
    Заголовок : BuR
    Язык : English
    Default : Да
    Forced : Нет

    Аудио #1
    Идентификатор : 2
    Формат : AC-3
    Формат/Информация : Audio Coding 3
    Расширение режима : CM (complete main)
    Параметр Endianness формата : Big
    Идентификатор кодека : A_AC3
    Продолжительность : 1 ч. 48 м.
    Вид битрейта : Постоянный
    Битрейт : 448 Кбит/сек
    Каналы : 6 каналов
    Расположение каналов : Front: L C R, Side: L R, LFE
    Частота : 48,0 КГц
    Битовая глубина : 16 бит
    Метод сжатия : С потерями
    Размер потока : 348 Мбайт (1%)
    Заголовок : DeadSno den904
    Язык : Russian
    Default : Да
    Forced : Нет

    Аудио #2
    Идентификатор : 3
    Формат : AC-3
    Формат/Информация : Audio Coding 3
    Расширение режима : CM (complete main)
    Параметр Endianness формата : Big
    Идентификатор кодека : A_AC3
    Продолжительность : 1 ч. 48 м.
    Вид битрейта : Постоянный
    Битрейт : 640 Кбит/сек
    Каналы : 6 каналов
    Расположение каналов : Front: L C R, Side: L R, LFE
    Частота : 48,0 КГц
    Битовая глубина : 16 бит
    Метод сжатия : С потерями
    Размер потока : 497 Мбайт (2%)
    Заголовок : Eng
    Язык : English
    Default : Нет
    Forced : Нет

    Аудио #3
    Идентификатор : 4
    Формат : DTS
    Формат/Информация : Digital Theater Systems
    Режим : 16
    Параметр Endianness формата : Big
    Идентификатор кодека : A_DTS
    Продолжительность : 1 ч. 48 м.
    Вид битрейта : Постоянный
    Битрейт : 1509 Кбит/сек
    Каналы : 6 каналов
    Расположение каналов : Front: L C R, Side: L R, LFE
    Частота : 48,0 КГц
    Битовая глубина : 24 бит
    Метод сжатия : С потерями
    Размер потока : 1,15 Гбайт (4%)
    Заголовок : Eng
    Язык : English
    Default : Нет
    Forced : Нет

    Текст #1
    Идентификатор : 5
    Формат : UTF-8
    Идентификатор кодека : S_TEXT/UTF8
    Идентификатор кодека/Информация : UTF-8 Plain Text
    Язык : Russian
    Default : Нет
    Forced : Нет

    Текст #2
    Идентификатор : 6
    Формат : UTF-8
    Идентификатор кодека : S_TEXT/UTF8
    Идентификатор кодека/Информация : UTF-8 Plain Text
    Язык : English
    Default : Нет
    Forced : Нет

    Меню
    00:00:00.000 : en:00:00:00.000
    00:05:23.906 : en:00:05:23.906
    00:09:49.589 : en:00:09:49.589
    00:16:19.561 : en:00:16:19.561
    00:19:49.188 : en:00:19:49.188
    00:25:32.239 : en:00:25:32.239
    00:30:45.718 : en:00:30:45.718
    00:35:16.405 : en:00:35:16.405
    00:41:58.724 : en:00:41:58.724
    00:45:59.840 : en:00:45:59.840
    00:49:18.372 : en:00:49:18.372
    00:55:32.829 : en:00:55:32.829
    00:59:39.993 : en:00:59:39.993
    01:07:38.387 : en:01:07:38.387
    01:12:25.674 : en:01:12:25.674
    01:16:09.398 : en:01:16:09.398
    01:24:45.580 : en:01:24:45.580
    01:29:11.137 : en:01:29:11.137
    01:36:35.080 : en:01:36:35.080
    01:42:46.952 : en:01:42:46.952

    Скриншоты для ознакомления:


    Релиз подготовил: |
    Размер скачиваемого торрента: 25.89 GB (27803300779 Bytes)

    Мотель / The Bag Man (2014) BDRemux 1080p от FireBit-Films | L2 скачать через торрент бесплатно
    загрузка...
    Рейтинг →
     (голосов: 1, оценка 3/5, голосовать можно 1 раз )

    Другие торренты по теме:

  • Молчаливый мотель / No Tell Motel (2012) WEB-DLRip | L1 торрент скачать бесплатно
  • Мотель Бейтса / Bates Motel (2013) HDTVRip 720р | BaibaKo торрент скачать бесплатно
  • Мотель Бэйтс / Bates Motel (2013) WEB-DL 720p торрент скачать бесплатно
  • Джеймс Хедли Чейз - Дьявольский мотель (2013) MP3 торрент скачать бесплатно
  • Адский мотель / Мотель Ад / Motel Hell (1980) BDRip-AVC от olegek70 | A торрент скачать бесплатно
  • Добро пожаловать в мотель Бейтса / The Bates Haunting (2012) WEB-DLRip | L2 торрент скачать бесплатно
  • Мотель Бейтса (Мотель Бэйтс) / Bates Motel (2013) WEB-DL 1080p от MediaClub торрент скачать бесплатно
  • Мотель Бейтса (Мотель Бэйтс) / Bates Motel (2013) WEB-DL 720p от MediaClub торрент скачать бесплатно


    • Комментарии (0):

      Информация

      Информация

        Посетители, находящиеся в группе Гости, не могут оставлять комментарии в данной новости.

        ↓ Меню



        ↓ Опрос

        А Вы добавили сайт в закладки?
        Да
        Не


        Top 10 за неделю (Фильмы)