.
Авторизация | Регистрация
Хочешь лучшие торренты? Добавь свой email!
Добавить
» » Сердце льва / Heart of A Lion / Leijonasydn (2013) BDRip 1080p от CINEMANIA | L1 скачать через торрент бесплатно




    Сердце льва / Heart of A Lion / Leijonasydn (2013) BDRip 1080p от CINEMANIA | L1 скачать через торрент бесплатно

    Опубликовал: Админ | Дата: 27-02-2015, 11:10 | Просмотров: 156



    Детально о кино
    Русское название: Сердце льва
    Русское название в мировом прокате: Heart of A Lion / Leijonasydan
    Создали в: 2013
    Категория жанра: драма
    Главный режиссер: Доме Карукоски
    Актеры: Петер Францен, Лаура Бирн, Яспер Пяякконен, Памела Тола, Юсси Ватанен, Деограсиас Масоми, Микко Неувонен, Лаура Хеймо, Тимо Лавикайнен, Юха Пурсиайнен

    Сюжет фильма:
    Молодой парень Теппо, придерживающийся неонацистских взглядов, страстно влюбляется в Сари, у которой есть маленький темнокожий сын Раму. Эти отношения ставят перед парнем сложные вопросы. Способен ли Теппо перерасти свои собственные предрассудки? Что окажется для него важнее: любовь или же преданность друзьям? Есть ли в сердце храброго льва место для нежности?



    Снималось в: Финляндия, Швеция
    Время просмотра: 01:39:18
    Тип перевода: Любительское (одноголосое) ХихиДок

    Файл
    Тип видео: MKV
    Качество фильма: BDRip 1080p PHD
    Информация о видео: 11000 kb/s, 1920х804
    Информация о звуке: Russian: AC3, 192 kb/s (2 ch) / Finnish: DTS, 768 kb/s (6 ch)
    Субтитры: Russian forced, English
    Дополнительно: Сохранены оригинальные чаптеры как на Blu-Ray
    Размер скачиваемого торрента: 10.1 Gb
    Скачать: Сэмпл

    Релиз группы:



    NFO
    Общее
    Heart.of.a.Lion.2013.Blu.Ray.1080p.CINEMANIA.mkv
    Формат : Matroska
    Версия формата : Version 4 / Version 2
    Размер файла : 10,1 Гбайт
    Продолжительность : 1 ч. 39 м.
    Режим общего битрейта : Переменный
    Общий поток : 14,6 Мбит/сек
    Название фильма : Release Group CINEMANIA
    Дата кодирования : UTC 2014-05-26 18:17:48
    Программа кодирования : mkvmerge v6.9.1 (;Blue Panther;) 64bit built on Apr 18 2014 18:23:38
    Библиотека кодирования : libebml v1.3.0 + libmatroska v1.4.1

    Видео
    Идентификатор : 1
    Формат : AVC
    Формат/Информация : Advanced Video Codec
    Профиль формата : High@L4.1
    Параметр CABAC формата : Да
    Параметр ReFrames формата : 5 кадров
    Идентификатор кодека : V_MPEG4/ISO/AVC
    Продолжительность : 1 ч. 39 м.
    Ширина : 1920 пикселей
    Высота : 804 пикселя
    Соотношение сторон : 2,40:1
    Режим частоты кадров : Постоянный
    Частота кадров : 23,976 кадра/сек
    Цветовое пространство : YUV
    Субдискретизация насыщенности : 4:2:0
    Битовая глубина : 8 бит
    Тип развёртки : Прогрессивная
    Заголовок : Release Group CINEMANIA
    Язык : English
    Default : Да
    Forced : Нет

    Аудио #1
    Идентификатор : 2
    Формат : AC-3
    Формат/Информация : Audio Coding 3
    Расширение режима : CM (complete main)
    Параметр Endianness формата : Big
    Идентификатор кодека : A_AC3
    Продолжительность : 1 ч. 39 м.
    Вид битрейта : Постоянный
    Битрейт : 192 Кбит/сек
    Каналы : 2 канала
    Расположение каналов : Front: L R
    Частота : 44,1 КГц
    Битовая глубина : 16 бит
    Метод сжатия : С потерями
    Размер потока : 136 Мбайт (1%)
    Заголовок : ХиХиДок
    Язык : Russian
    Default : Да
    Forced : Да

    Аудио #2
    Идентификатор : 3
    Формат : DTS
    Формат/Информация : Digital Theater Systems
    Режим : 16
    Параметр Endianness формата : Big
    Идентификатор кодека : A_DTS
    Продолжительность : 1 ч. 37 м.
    Вид битрейта : Постоянный
    Битрейт : 768 Кбит/сек
    Каналы : 6 каналов
    Расположение каналов : Front: L C R, Side: L R, LFE
    Частота : 48,0 КГц
    Битовая глубина : 16 бит
    Метод сжатия : С потерями
    Размер потока : 1,03 Гбайт (42%)
    Язык : English
    Default : Нет
    Forced : Нет

    Текст #1
    Идентификатор : 4
    Формат : UTF-8
    Идентификатор кодека : S_TEXT/UTF8
    Идентификатор кодека/Информация : UTF-8 Plain Text
    Заголовок : forced
    Язык : Russian
    Default : Да
    Forced : Да

    Текст #2
    Идентификатор : 5
    Формат : UTF-8
    Идентификатор кодека : S_TEXT/UTF8
    Идентификатор кодека/Информация : UTF-8 Plain Text
    Язык : English
    Default : Нет
    Forced : Нет

    Меню
    00:00:00.000 : en:00:00:00.000
    00:02:29.441 : en:00:02:29.441
    00:09:12.802 : en:00:09:12.802
    00:25:01.500 : en:00:25:01.500
    00:32:48.466 : en:00:32:48.466
    00:42:26.210 : en:00:42:26.210
    00:52:00.159 : en:00:52:00.159
    01:00:43.723 : en:01:00:43.723
    01:09:16.778 : en:01:09:16.778
    01:16:31.253 : en:01:16:31.253
    01:26:21.134 : en:01:26:21.134
    01:34:16.067 : en:01:34:16.067

    Залил: DGEKIGAN
    Размер скачиваемого торрента: 10.13 GB (10876673511 Bytes)

    Сердце льва / Heart of A Lion / Leijonasydn (2013) BDRip 1080p от CINEMANIA | L1 скачать через торрент бесплатно
    загрузка...
    Рейтинг →
     (голосов: 1, оценка 4/5, голосовать можно 1 раз )

    Другие торренты по теме:

  • Сердце льва / Heart of A Lion / Leijonasydn (2013) BDRip 720p от CINEMANIA | L1 скачать через торрент бесплатно
  • Сердце льва / Leijonasydn / Heart of A Lion (2013) HDRip скачать через торрент бесплатно
  • Сердце льва / Leijonasydan / Heart of a lion (2013) HDRip от Scarabey
  • Сердце льва / Leijonasydan / Heart of a lion (2013) HDRip от Scarabey
  • Сердце льва / Leijonasydan / Heart of a lion (2013) DVB от MediaClub | P скачать через торрент бесплатно
  • Сердце льва / Heart of A Lion / Leijonasydn (2013) HDRip | НТВ+ скачать через торрент бесплатно


    • Комментарии (0):

      Информация

      Информация

        Посетители, находящиеся в группе Гости, не могут оставлять комментарии в данной новости.

        ↓ Меню



        ↓ Опрос

        А Вы добавили сайт в закладки?
        Да
        Не


        Top 10 за месяц (Фильмы)