.
Авторизация | Регистрация
Хочешь лучшие торренты? Добавь свой email!
Добавить
» » Амистад / Amistad (1997) BDRip-AVC | iPad | P,A скачать через торрент бесплатно




    Амистад / Amistad (1997) BDRip-AVC | iPad | P,A скачать через торрент бесплатно

    Опубликовал: Админ | Дата: 27-02-2015, 11:10 | Просмотров: 144



    Амистад / Amistad (1997) BDRip-AVC | iPad | P,A
    Freedom is not given. It is our right at birth. But there are some moments when it must be taken

    Русское название: Амистад
    Русское название в мировом прокате: Amistad
    Создали в: 1997
    Категория жанра: драма, детектив, история
    Главный режиссер: Стивен Спилберг
    Актеры: Морган Фриман, Найджел Хоторн, Энтони Хопкинс, Джимон Хонсу, Мэттью МакКонахи, Дэвид Пэймер, Пит Постлетуэйт, Стеллан Скарсгард, Разаак Адоти, Анна Пэкуин

    Сюжет фильма:
    Основаный на реальных событиях, фильм повествует о невероятном путешествии рабов африканцев, которые захватывают работорговый корабль Амистад и пытаются вернуться на родину.После того как власти наконец арестовывают корабль, рабов отправляют в Соединенные Штаты, где они попадают в тюрьму по обвинению в убийстве. Начинается процесс, затрагивающий основы американского правосудия и привлекающий внимание всей нации. Но для самих подсудимых это прежде всего борьба за свои права и свободу.



    Снималось в: США
    Киностудия: DreamWorks SKG, HBO

    Время просмотра: 02:34:43
    Перевод текста: Русский профессиональный многоголосый закадровый, авторский одноголосый закадровый

    Файл
    Кодек для видео: H.264
    Качество фильма: BDRip 576p
    Информация о видео: 1024x554 (1.85:1) at 23.976 fps, AVC at 3900 kbps
    Информация о звуке:
    1: АAС 2.0 139 kbps - Русский профессиональный многоголосый закадровый
    2: АAС 2.0 139 kbps - Русский авторский одноголосый закадровый
    3: АAС 2.0 132 kbps - Английский
    Субтитры: отсутствуют

    MediaInfo

    General
    Complete name : C:CREATE264mod1outAmistad.1997.576p.PA.m4v
    Format : MPEG-4
    Codec ID : M4V
    File size : 4.77 GiB
    Duration : 2h 34mn
    Overall bit rate mode : Variable
    Overall bit rate : 4 415 Kbps
    Movie name : Амистад
    Performer : Steven Spielberg
    Genre : Drama
    ContentType : Short Film
    Deion : Основаный на реальных событиях, фильм повествует о невероятном путешествии рабов африканцев, которые захватывают работорговый корабль Амистад и пытаются вернуться на родину.
    Recorded date : UTC 1997-12-04 08:00:00
    Encoded date : UTC 2014-05-26 15:07:22
    Tagged date : UTC 2014-05-26 15:21:13
    Copyright : DreamWorks SKG, Home Box Office (HBO)
    Cover : Yes
    Comment : Freedom is not given. It is our right at birth. But there are some moments when it must be taken
    ContentRating : mpaa|R|400|

    Title/Sort : Amistad
    LongDeion : Основаный на реальных событиях, фильм повествует о невероятном путешествии рабов африканцев, которые захватывают работорговый корабль Амистад и пытаются вернуться на родину. После того как власти наконец арестовывают корабль, рабов отправляют в Соединенные Штаты, где они попадают в тюрьму по обвинению в убийстве. Начинается процесс, затрагивающий основы американского правосудия и привлекающая внимание всей нации. Но для самих подсудимых это прежде всего борьба за свои права и свободу.
    AppleStoreCatalogID : 1059
    Vendor : Apple:vendor_id:1997-1059

    Video
    ID : 1
    Format : AVC
    Format/Info : Advanced Video Codec
    Format profile : High@L4.1
    Format settings, CABAC : Yes
    Format settings, ReFrames : 10 frames
    Codec ID : avc1
    Codec ID/Info : Advanced Video Coding
    Duration : 2h 34mn
    Bit rate : 3 987 Kbps
    Maximum bit rate : 22.9 Mbps
    Width : 1 024 pixels
    Height : 554 pixels
    Display aspect ratio : 1.85:1
    Frame rate mode : Constant
    Frame rate : 23.976 fps
    Color space : YUV
    Chroma subsampling : 4:2:0
    Bit depth : 8 bits
    Scan type : Progressive
    Bits/(Pixel*Frame) : 0.293
    Stream size : 4.31 GiB (90%)
    Title : Amistad.1997
    Language : English
    Encoded date : UTC 2014-05-26 15:07:22
    Tagged date : UTC 2014-05-26 15:08:19

    Audio #1
    ID : 2
    Format : AAC
    Format/Info : Advanced Audio Codec
    Format profile : LC
    Codec ID : 40
    Duration : 2h 34mn
    Bit rate mode : Variable
    Bit rate : 139 Kbps
    Maximum bit rate : 182 Kbps
    Channel(s) : 2 channels
    Channel positions : Front: L R
    Sampling rate : 48.0 KHz
    Compression mode : Lossy
    Stream size : 154 MiB (3%)
    Title : MVO R5
    Language : Russian
    Encoded date : UTC 2014-05-26 14:52:09
    Tagged date : UTC 2014-05-26 15:08:19

    Audio #2
    ID : 3
    Format : AAC
    Format/Info : Advanced Audio Codec
    Format profile : LC
    Codec ID : 40
    Duration : 2h 34mn
    Bit rate mode : Variable
    Bit rate : 139 Kbps
    Maximum bit rate : 181 Kbps
    Channel(s) : 2 channels
    Channel positions : Front: L R
    Sampling rate : 48.0 KHz
    Compression mode : Lossy
    Stream size : 154 MiB (3%)
    Title : AVO Y.Serbin
    Language : Russian
    Encoded date : UTC 2014-05-26 14:58:11
    Tagged date : UTC 2014-05-26 15:08:19

    Audio #3
    ID : 4
    Format : AAC
    Format/Info : Advanced Audio Codec
    Format profile : LC
    Codec ID : 40
    Duration : 2h 34mn
    Bit rate mode : Variable
    Bit rate : 132 Kbps
    Maximum bit rate : 181 Kbps
    Channel(s) : 2 channels
    Channel positions : Front: L R
    Sampling rate : 48.0 KHz
    Compression mode : Lossy
    Stream size : 149 MiB (3%)
    Title : Original
    Language : English
    Encoded date : UTC 2014-05-26 15:04:35
    Tagged date : UTC 2014-05-26 15:08:19

    Menu
    ID : 5
    Codec ID : text
    Duration : 2h 34mn
    Encoded date : UTC 2014-05-26 15:09:24
    Tagged date : UTC 2014-05-26 15:09:24
    Bit rate mode : CBR

    x264

    x264 info: frame I:1258 Avg QP:15.18 size: 92478
    x264 info: frame P:48785 Avg QP:17.65 size: 39192
    x264 info: frame B:172534 Avg QP:19.32 size: 15059
    x264 info: consecutive B-frames: 2.2% 3.2% 7.2% 16.1% 18.8% 45.5% 3.8% 1.1% 0.7% 0.2% 0.2% 0.2% 0.1% 0.1% 0.5%
    x264 info: mb I I16..4: 18.6% 50.8% 30.6%
    x264 info: mb P I16..4: 1.8% 9.2% 2.6% P16..4: 29.7% 35.0% 13.4% 3.7% 0.6% skip: 4.1%
    x264 info: mb B I16..4: 0.1% 1.3% 0.3% B16..8: 33.6% 19.4% 3.6% direct: 8.8% skip:32.8% L0:40.3% L1:42.7% BI:17.0%
    x264 info: 8x8 transform intra:68.7% inter:34.8%
    x264 info: coded y,uvDC,uvAC intra: 93.8% 75.3% 55.4% inter: 30.9% 14.0% 5.7%
    x264 info: i16 v,h,dc,p: 7% 8% 22% 62%
    x264 info: i8 v,h,dc,ddl,ddr,vr,hd,vl,hu: 9% 9% 10% 9% 13% 12% 12% 12% 13%
    x264 info: i4 v,h,dc,ddl,ddr,vr,hd,vl,hu: 9% 8% 6% 10% 14% 13% 13% 12% 14%
    x264 info: i8c dc,h,v,p: 40% 25% 17% 18%
    x264 info: Weighted P-Frames: Y:7.0% UV:3.4%
    x264 info: ref P L0: 48.8% 8.3% 15.3% 7.9% 5.8% 4.4% 3.5% 2.2% 1.9% 1.7% 0.2% 0.0%
    x264 info: ref B L0: 80.8% 7.5% 4.3% 2.2% 1.7% 1.3% 1.1% 0.7% 0.4%
    x264 info: ref B L1: 94.9% 5.1%
    x264 info: kb/s:3986.98
    iTunes tags


    Sort Name: Amistad
    XID: Apple:vendor_id:1997-1059
    Content ID: 1059
    Copyright: DreamWorks SKG, Home Box Office (HBO)
    ScreenWriters: Дэвид Францони
    Producers: Дэбби Аллен, Роберт Купер, Бонни Кертис
    Director: Стивен Спилберг
    Cast: Морган Фриман, Найджел Хоторн, Энтони Хопкинс, Джимон Хонсу, Мэттью МакКонахи, Дэвид Пэймер, Пит Постлетуэйт, Стеллан Скарсгард, Разаак Адоти, Абу Бакаар Фофанах // Nigel Hawthorne (Martin Van Buren), Anthony Hopkins (John Quincy Adams), Djimon Hounsou (Cinque), Morgan Freeman (Theodore), Chiwetel Ejiofor (Ens. James Covey), Matthew McConaughey (Roger Sherman Baldwin), David Paymer (Secretary John Forsyth), Pete Postlethwaite (Holabird), Stellan Skarsg?rd (Tappan), Anna Paquin (Queen Isabella), Tom?s Mili?n (Calderon), John Ortiz (Montes), Ralph Brown (Lieutenant Gedney), Allan Rich (Judge Juttson), Paul Guilfoyle (Attorney), Peter Firth (Captain Fitzgerald), Jeremy Northam (Judge Coglin), Arliss Howard (John C. Calhoun), Rusty Schwimmer (Mrs. Pendleton), Jake Weber (Mr. Wright)
    Rating: R
    Long Deion: Основаный на реальных событиях, фильм повествует о невероятном путешествии рабов африканцев, которые захватывают работорговый корабль Амистад и пытаются вернуться на родину. После того как власти наконец арестовывают корабль, рабов отправляют в Соединенные Штаты, где они попадают в тюрьму по обвинению в убийстве. Начинается процесс, затрагивающий основы американского правосудия и привлекающая внимание всей нации. Но для самих подсудимых это прежде всего борьба за свои права и свободу.
    Deion: Основаный на реальных событиях, фильм повествует о невероятном путешествии рабов африканцев, которые захватывают работорговый корабль Амистад и пытаются вернуться на родину.
    Release Date: 1997-12-04T08:00:00Z
    Genre: Drama
    Artist: Steven Spielberg
    Name: Амистад
    Comments: Freedom is not given. It is our right at birth. But there are some moments when it must be taken






    Залил: gekka
    Размер скачиваемого торрента: 4.77 GB (5123150554 Bytes)

    Амистад / Amistad (1997) BDRip-AVC | iPad | P,A скачать через торрент бесплатно
    загрузка...
    Рейтинг →
     (голосов: 1, оценка 5/5, голосовать можно 1 раз )

    Другие торренты по теме:

  • Амистад / Amistad (1997) BDRip от HQCLUB скачать через торрент бесплатно
  • Амистад / Amistad (1997) HDRip-AVC от Rulya74 скачать через торрент бесплатно
  • Амистад / Amistad (1997) BDRip 720p | P, P2, A, L1


    • Комментарии (0):

      Информация

      Информация

        Посетители, находящиеся в группе Гости, не могут оставлять комментарии в данной новости.

        ↓ Меню



        ↓ Опрос

        А Вы добавили сайт в закладки?
        Да
        Не


        Top 10 за месяц (Фильмы)