.
Авторизация | Регистрация
» » Сахара / Sahara (1995) DVDRip от New-Team скачать через торрент бесплатно




    Сахара / Sahara (1995) DVDRip от New-Team скачать через торрент бесплатно

    Опубликовал: Админ | Дата: 27-02-2015, 11:10 | Просмотров: 176


    Снималось в: США
    Создали в: TriStar Pictures, TriStar Television, Village Roadshow Pictures

    Категория жанра: боевик, военный
    Создали в: 1995
    Время просмотра: 1:46:00

    Перевод текста: Профессиональный (многоголосый закадровый) НТВ+
    Оригинальная аудиодорожка: нет
    Субтитры подготовлены: нет

    Главный режиссер: Брайан Тренчард-Смит / Brian Trenchard-Smith

    Актеры:
    Джеймс Белуши /James Belushi, Элан Дэвид Ли, Саймон Уэстэуэй /Simon Westaway, Марк Ли /Mark Lee, Майкл Мэсси /Michael Massee, Роберт Уиздом /Robert Wisdom, Анджело Д;Анджело, Пол Эмпсон...

    Сюжет:
    Северная Африка, июнь 1942 года. После сражений с армией генерала Роммеля, от танкового батальона, в котором воюет сержант американской армии Джо Ганн, остается только одна машина. Подобрав по пути несколько солдат Союзнической армии, Ганн направляет свой танк в жгучие сахарские пески в надежде отыскать воду. Найдя полупересохший колодец, они утоляют жажду и наполняют фляги. А тем временем по их следу идет изнемогающий от жажды немецкий батальон. И Ганн решает вступить в бой…



    Исходник: DVD5 R2
    Тип релиза: DVDRip
    Контейнер: AVI

    Информация о видео: 576x432 (4:3), 23,976 fps, XviD ~ 846 kbps avg, 0.142 bit/pixel
    Информация о звуке: 48 kHz, MP3 2.0, 128 kbps

    Раздача от:
    MediaInfo

    Общее
    Полное имя : Sahara.1995.DVDRip_New-team_by_AVP_Studio.avi
    Формат : AVI
    Формат/Информация : Audio Video Interleave
    Размер файла : 746 Мбайт
    Продолжительность : 1 ч. 46 м.
    Общий поток : 983 Кбит/сек
    Программа кодирования : VirtualDubModRus 1.5.10.2 (build 2542/release)
    Библиотека кодирования : VirtualDubMod build 2542/release

    Видео
    Идентификатор : 0
    Формат : MPEG-4 Visual
    Профиль формата : Advanced Simple@L5
    Параметр BVOP формата : 1
    Параметр QPel формата : Нет
    Параметр GMC формата : Без точки перехода
    Параметр матрицы формата : Выборочная
    Идентификатор кодека : XVID
    Идентификатор кодека/Подсказка : XviD
    Продолжительность : 1 ч. 46 м.
    Битрейт : 846 Кбит/сек
    Ширина : 576 пикселей
    Высота : 432 пикселя
    Соотношение сторон : 4:3
    Частота кадров : 23,976 кадра/сек
    Цветовое пространство : YUV
    Субдискретизация насыщенности : 4:2:0
    Битовая глубина : 8 бит
    Тип развёртки : Прогрессивная
    Метод сжатия : С потерями
    Бит/(Пиксели*Кадры) : 0.142
    Размер потока : 641 Мбайт (86%)
    Библиотека кодирования : XviD 73

    Аудио
    Идентификатор : 1
    Формат : MPEG Audio
    Версия формата : Version 1
    Профиль формата : Layer 3
    Идентификатор кодека : 55
    Идентификатор кодека/Подсказка : MP3
    Продолжительность : 1 ч. 46 м.
    Вид битрейта : Постоянный
    Битрейт : 128 Кбит/сек
    Каналы : 2 канала
    Частота : 48,0 КГц
    Метод сжатия : С потерями
    Размер потока : 97,1 Мбайт (13%)
    Выравнивание : Соединение по промежуткам
    Продолжительность промежутка : 42 мс. (1,00 видеокадр)
    Время предзагрузки промежутка : 504 мс.
    Библиотека кодирования : LAME3.99r
    Залил: AVPStudio
    Размер скачиваемого торрента: 745.51 MB (781727744 Bytes)


    Сахара / Sahara (1995) DVDRip от New-Team скачать через торрент бесплатно
    загрузка...
    Рейтинг →
     (голосов: 1, оценка 5/5, голосовать можно 1 раз )

    Другие торренты по теме:

  • Темный сахар / Brown Sugar (2002) DVDRip-AVC от Youtracker | P торрент скачать бесплатно
  • Сахара / Sahara (1995) DVDRip от Leon-masl торрент скачать бесплатно
  • Сахар / Sugar (2008) BDRip 720p | L1 торрент скачать бесплатно
  • Пунш из жжёного сахара / Die Feuerzangenbowle (1944) DVDRip скачать через торрент бесплатно
  • Сахар / Le sucre (1978) BDRip 720p торрент скачать бесплатно
  • Сахара / Sahara (1995) DVDRip-AVC от New-Team торрент скачать бесплатно
  • Сахара / Sahara (2005) BDRip 720p от HQ-ViDEO | Open Matte торрент скачать бесплатно
  • Виктор Вишняков, Николай Сахаров - Песни Морского Волка скачать через торрент бесплатно


    • Комментарии (0):

      Информация

      Информация

        Посетители, находящиеся в группе Гости, не могут оставлять комментарии в данной новости.

        ↓ Меню



        ↓ Опрос

        А Вы добавили сайт в закладки?
        Да
        Не


        Top 10 за неделю (Фильмы)