.
Авторизация | Регистрация
Хочешь лучшие торренты? Добавь свой email!
Добавить
» » Росселла / Rossella (2011) SATRip | SET скачать через торрент бесплатно




    Росселла / Rossella (2011) SATRip | SET скачать через торрент бесплатно

    Опубликовал: Админ | Дата: 27-02-2015, 11:10 | Просмотров: 250



    Детально о кино
    Русское название: Росселла
    Русское название в мировом прокате: Rossella
    Создали в: 2011
    Категория жанра: драма, мелодрама
    Главный режиссер: Джанни Лепре, Кармине Элиа
    Актеры: Тони Берторелли, Danilo Brugia, Франческа Каваллин, Джованни Гуиделли, Анна Мелато, Габриэлла Пессион, Тереза Сапонанджело, Фабио Сартор, Джузеппе Зено

    Сюжет фильма:
    Действие фильма разворачивается в Генуе в конце XIX — в начале XX веков. Главная героиня — Росселла Андрэй, красивая молодая девушка из богатой семьи, принадлежащей к высшему обществу Генуи. Романтическая, мятежная, полная любопытства к миру, она живет со своим отцом Пьетро, владельцем машиностроительного завода, и сестрой Паолиной. Мать, Олимпия, умерла при загадочных обстоятельствах, когда девушка была еще ребенком.

    Росселла тайно влюбляеться в амбициозного, страстного и бедного журналиста Джулиано Саллустио. И когда наследник семьи немецких промышленников попросил ее руки, Росселла отказывается, раскрывает свою любовь к Джулиано, заявляет о своей свободе, ссориться с отцом. Наконец решает сбежать с любимым человеком. Но на самом ли деле Джулиано тот человек, каким она его считает, или Росселла, из-за слишком большой любви и своей наивности, ошибаеться по поводу его истинной натуры?



    Снималось в: Италия
    Киностудия: Rai Uno
    Время просмотра: ~ 00:50:00 серия
    Перевод текста: Профессиональный (многоголосый закадровый) SET

    Файл
    Кодек для видео: XviD / MP3
    Качество фильма: SATRip
    Информация о видео: MPEG4, XviD, 704x384 (16:9), 25.000 fps, 1 100 Kbps (0.163 bit/pixel)
    Информация о звуке: MP3, 48.0 KHz, 2 ch, 192 Kbps, CBR

    Скриншоты для ознакомления
    Screenshots
    MediaInfo
    General
    Complete name : /Rossella (s02)/Rossella.s02e01.Rus.SATRip.avi
    Format : AVI
    Format/Info : Audio Video Interleave
    File size : 565 MiB
    Duration : 1h 0mn
    Overall bit rate : 1 302 Kbps
    Writing application : VirtualDubMod 1.5.10.3 | www.virtualdub-fr.org || (build 2550/release)
    Writing library : VirtualDubMod build 2550/release

    Video
    ID : 0
    Format : MPEG-4 Visual
    Format profile : Advanced Simple@L5
    Format settings, BVOP : 2
    Format settings, QPel : No
    Format settings, GMC : No warppoints
    Format settings, Matrix : Default (H.263)
    Codec ID : XVID
    Codec ID/Hint : XviD
    Duration : 1h 0mn
    Bit rate : 1 100 Kbps
    Width : 704 pixels
    Height : 384 pixels
    Display aspect ratio : 1.85:1
    Frame rate : 25.000 fps
    Color space : YUV
    Chroma subsampling : 4:2:0
    Bit depth : 8 bits
    Scan type : Progressive
    Compression mode : Lossy
    Bits/(Pixel*Frame) : 0.163
    Stream size : 477 MiB (85%)
    Writing library : XviD 65

    Audio
    ID : 1
    Format : MPEG Audio
    Format version : Version 1
    Format profile : Layer 3
    Mode : Joint stereo
    Mode extension : MS Stereo
    Codec ID : 55
    Codec ID/Hint : MP3
    Duration : 1h 0mn
    Bit rate mode : Constant
    Bit rate : 192 Kbps
    Channel(s) : 2 channels
    Sampling rate : 48.0 KHz
    Compression mode : Lossy
    Stream size : 83.4 MiB (15%)
    Alignment : Aligned on interleaves
    Interleave, duration : 40 ms (1.00 video frame)
    Interleave, preload duration : 504 ms
    Writing library : LAME3.99r
    Encoding settings : -m j -V 4 -q 0 -lowpass 18.6 -b 192

    Размер скачиваемого торрента: 5.11 GB (5481652224 Bytes)

    Росселла / Rossella (2011) SATRip | SET скачать через торрент бесплатно
    загрузка...
    Рейтинг →
     (голосов: 1, оценка 5/5, голосовать можно 1 раз )

    Другие торренты по теме:

  • Росселла / Rossella (2011) SATRip | SET скачать через торрент бесплатно


    • Комментарии (0):

      Информация

      Информация

        Посетители, находящиеся в группе Гости, не могут оставлять комментарии в данной новости.

        ↓ Меню



        ↓ Опрос

        А Вы добавили сайт в закладки?
        Да
        Не


        Top 10 за месяц (Фильмы)