.
Авторизация | Регистрация
Хочешь лучшие торренты? Добавь свой email!
Добавить
» » Солдаты неудачи / Tropic Thunder (2008) BDRip by msltel | D, P, A | Режиссёрская версия торрент скачать бесплатно




    Солдаты неудачи / Tropic Thunder (2008) BDRip by msltel | D, P, A | Режиссёрская версия торрент скачать бесплатно

    Опубликовал: Админ | Дата: 27-02-2015, 11:10 | Просмотров: 147



    Русское название: Солдаты неудачи (Режиссёрская версия)
    Русское название в мировом прокате: Tropic Thunderr (Director;s cut)
    Создали в: 2008
    Категория жанра: Боевик, комедия
    Снималось в: США, Германия, Великобритания, DreamWorks SKG, Goldcrest Pictures, Red Hour Films, Road Rebel
    Главный режиссер: Бен Стиллер
    Актеры: Бен Стиллер, Роберт Дауни мл., Джек Блэк, Брэндон Т. Джексон, Ник Нолти, Стив Кугэн, Билл Хэйдер, Джастин Теру, Трю Трэн, Джей Барушель, Дэнни МакБрайд, Брэндон Су Ху, Реджи Ли, Андреа Де Оливейра, Надин Эллис, Мэтт Левин, Дэвид Прессман, Нилл Скайлар, Том Круз, Валери Эзлинн, Мэттью МакКонахи

    Сюжет фильма: Камера. Мотор. Начали! В реальных джунглях проходят съёмки суперблокбастера с участием больших звёзд, среди которых крутой герой боевиков, мастер туалетного юмора, чернокожий рэппер Альпа Чино и обладатель всех кинопремий, специально для фильма перекрасивший кожу в чёрный цвет. Когда у продюсеров закончились деньги и съёмки были остановлены, актёрам про это не сказали. Поэтому они с холостыми патронами с лёгкостью вступают в неравный бой с настоящими вооружёнными до зубов бандитами-головорезами…

    Качество фильма: BDRip
    Размер скачиваемого торрента: 3.62 ГБ
    Время просмотра: 02:01:08

    Информация о видео: XviD, 1576 Кбит/с, 720x304
    Информация о звуке: русский, 48 kHz, AC3, 6 ch, 448 kbps avg, Дублированный (с добавлением многоголоски)

    Внешние файлы
    Информация о звуке: русский, 48 kHz, AC3, 6 ch, 448 kbps avg, Профессиональный многоголосый, Киномания
    Информация о звуке: русский, 48 kHz, AC3, 6 ch, 448 kbps avg, Профессиональный многоголосый, студия Кравец
    Информация о звуке: русский, 48 kHz, AC3, 6 ch, 448 kbps avg, Авторский, Леонид Володарский
    Информация о звуке: русский, 48 kHz, AC3, 6 ch, 448 kbps avg, Авторский, Юрий Сербин
    Информация о звуке: английский, 48 kHz, AC3, 6 ch, 448 kbps avg, Оригинал
    Информация о звуке: английский, 48 kHz, AC3, 2 ch, 192 kbps avg, Комментарий режиссёра и продюсеров
    Информация о звуке: английский, 48 kHz, AC3, 2 ch, 192 kbps avg, Комментарий актёров
    Субтитры: русские
    Субтитры: английские

    Исходник: KpucTo161 (HDtracker)

    Сравнение с исходником



    Награды
    Оскар, 2009 год
    Номинации (1):
    Лучшая мужская роль второго плана (Роберт Дауни мл.)

    Золотой глобус, 2009 год
    Номинации (2):
    Лучшая мужская роль второго плана (Том Круз)
    Лучшая мужская роль второго плана (Роберт Дауни мл.)

    Премия канала MTV, 2009 год
    Номинации (1):
    Самый безумный эпизод

    Британская академия, 2009 год
    Номинации (1):
    Лучшая мужская роль второго плана (Роберт Дауни мл.)

    Жорж, 2009 год
    Номинации (1):
    Лучший высокобюджетный/зрелищный фильм

    Премия Гильдии актеров, 2009 год
    Номинации (1):
    Лучшая мужская роль второго плана (Роберт Дауни мл.)
    MediaInfo
    Общее
    Полное имя : D:VideoSoldaty neudachi.DirCut.2008.BDRipSoldaty neudachi.DirCut.2008.AVO.rus.Л.Володарский.ac3
    Формат : AC-3
    Формат/Информация : Audio Coding 3
    Размер файла : 388 Мбайт
    Продолжительность : 2 ч. 1 м.
    Режим общего битрейта : Постоянный
    Общий поток : 448 Кбит/сек

    Аудио
    Формат : AC-3
    Формат/Информация : Audio Coding 3
    Расширение режима : CM (complete main)
    Параметр Endianness формата : Big
    Продолжительность : 2 ч. 1 м.
    Вид битрейта : Постоянный
    Битрейт : 448 Кбит/сек
    Каналы : 6 каналов
    Расположение каналов : Front: L C R, Side: L R, LFE
    Частота : 48,0 КГц
    Битовая глубина : 16 бит
    Метод сжатия : С потерями
    Размер потока : 388 Мбайт (100%)

    Общее
    Полное имя : D:VideoSoldaty neudachi.DirCut.2008.BDRipSoldaty neudachi.DirCut.2008.AVO.rus.Ю.Сербин.ac3
    Формат : AC-3
    Формат/Информация : Audio Coding 3
    Размер файла : 388 Мбайт
    Продолжительность : 2 ч. 1 м.
    Режим общего битрейта : Постоянный
    Общий поток : 448 Кбит/сек

    Аудио
    Формат : AC-3
    Формат/Информация : Audio Coding 3
    Расширение режима : CM (complete main)
    Параметр Endianness формата : Big
    Продолжительность : 2 ч. 1 м.
    Вид битрейта : Постоянный
    Битрейт : 448 Кбит/сек
    Каналы : 6 каналов
    Расположение каналов : Front: L C R, Side: L R, LFE
    Частота : 48,0 КГц
    Битовая глубина : 16 бит
    Метод сжатия : С потерями
    Размер потока : 388 Мбайт (100%)

    Общее
    Полное имя : D:VideoSoldaty neudachi.DirCut.2008.BDRipSoldaty neudachi.DirCut.2008.BDRip.avi
    Формат : AVI
    Формат/Информация : Audio Video Interleave
    Размер файла : 1,72 Гбайт
    Продолжительность : 2 ч. 1 м.
    Общий поток : 2033 Кбит/сек
    Программа кодирования : VirtualDubMod 1.5.10.2 (build 2540/release)
    Библиотека кодирования : VirtualDubMod build 2540/release

    Видео
    Идентификатор : 0
    Формат : MPEG-4 Visual
    Профиль формата : Advanced Simple@L5
    Параметр BVOP формата : 1
    Параметр QPel формата : Нет
    Параметр GMC формата : Без точки перехода
    Параметр матрицы формата : Default (H.263)
    Режим смешивания : Сжатый битовый поток
    Идентификатор кодека : XVID
    Идентификатор кодека/Подсказка : XviD
    Продолжительность : 2 ч. 1 м.
    Битрейт : 1576 Кбит/сек
    Ширина : 720 пикселей
    Высота : 304 пикселя
    Соотношение сторон : 2,35:1
    Частота кадров : 23,976 кадра/сек
    Цветовое пространство : YUV
    Субдискретизация насыщенности : 4:2:0
    Битовая глубина : 8 бит
    Тип развёртки : Прогрессивная
    Метод сжатия : С потерями
    Бит/(Пиксели*Кадры) : 0.300
    Размер потока : 1,33 Гбайт (78%)
    Библиотека кодирования : XviD 1.2.1 (UTC 2008-12-04)

    Аудио
    Идентификатор : 1
    Формат : AC-3
    Формат/Информация : Audio Coding 3
    Расширение режима : CM (complete main)
    Параметр Endianness формата : Big
    Идентификатор кодека : 2000
    Продолжительность : 2 ч. 1 м.
    Вид битрейта : Постоянный
    Битрейт : 448 Кбит/сек
    Каналы : 6 каналов
    Расположение каналов : Front: L C R, Side: L R, LFE
    Частота : 48,0 КГц
    Битовая глубина : 16 бит
    Метод сжатия : С потерями
    Размер потока : 388 Мбайт (22%)
    Выравнивание : Разделение по промежуткам
    Продолжительность промежутка : 42 мс. (1,00 видеокадр)
    Время предзагрузки промежутка : 500 мс.

    Общее
    Полное имя : D:VideoSoldaty neudachi.DirCut.2008.BDRipSoldaty neudachi.DirCut.2008.eng.srt
    Формат : SubRip
    Размер файла : 134 Кбайт

    Текст
    Формат : SubRip
    Метод сжатия : Без потерь

    Общее
    Полное имя : D:VideoSoldaty neudachi.DirCut.2008.BDRipSoldaty neudachi.DirCut.2008.MVO.rus.Киномания.ac3
    Формат : AC-3
    Формат/Информация : Audio Coding 3
    Размер файла : 388 Мбайт
    Продолжительность : 2 ч. 1 м.
    Режим общего битрейта : Постоянный
    Общий поток : 448 Кбит/сек

    Аудио
    Формат : AC-3
    Формат/Информация : Audio Coding 3
    Расширение режима : CM (complete main)
    Параметр Endianness формата : Big
    Продолжительность : 2 ч. 1 м.
    Вид битрейта : Постоянный
    Битрейт : 448 Кбит/сек
    Каналы : 6 каналов
    Расположение каналов : Front: L C R, Side: L R, LFE
    Частота : 48,0 КГц
    Битовая глубина : 16 бит
    Метод сжатия : С потерями
    Размер потока : 388 Мбайт (100%)

    Общее
    Полное имя : D:VideoSoldaty neudachi.DirCut.2008.BDRipSoldaty neudachi.DirCut.2008.MVO.rus.студия Кравец.ac3
    Формат : AC-3
    Формат/Информация : Audio Coding 3
    Размер файла : 388 Мбайт
    Продолжительность : 2 ч. 1 м.
    Режим общего битрейта : Постоянный
    Общий поток : 448 Кбит/сек

    Аудио
    Формат : AC-3
    Формат/Информация : Audio Coding 3
    Расширение режима : CM (complete main)
    Параметр Endianness формата : Big
    Продолжительность : 2 ч. 1 м.
    Вид битрейта : Постоянный
    Битрейт : 448 Кбит/сек
    Каналы : 6 каналов
    Расположение каналов : Front: L C R, Side: L R, LFE
    Частота : 48,0 КГц
    Битовая глубина : 16 бит
    Метод сжатия : С потерями
    Размер потока : 388 Мбайт (100%)

    Общее
    Полное имя : D:VideoSoldaty neudachi.DirCut.2008.BDRipSoldaty neudachi.DirCut.2008.Original.eng.ac3
    Формат : AC-3
    Формат/Информация : Audio Coding 3
    Размер файла : 388 Мбайт
    Продолжительность : 2 ч. 1 м.
    Режим общего битрейта : Постоянный
    Общий поток : 448 Кбит/сек

    Аудио
    Формат : AC-3
    Формат/Информация : Audio Coding 3
    Расширение режима : CM (complete main)
    Параметр Endianness формата : Big
    Продолжительность : 2 ч. 1 м.
    Вид битрейта : Постоянный
    Битрейт : 448 Кбит/сек
    Каналы : 6 каналов
    Расположение каналов : Front: L C R, Side: L R, LFE
    Частота : 48,0 КГц
    Битовая глубина : 16 бит
    Метод сжатия : С потерями
    Размер потока : 388 Мбайт (100%)

    Общее
    Полное имя : D:VideoSoldaty neudachi.DirCut.2008.BDRipSoldaty neudachi.DirCut.2008.rus.srt
    Формат : SubRip
    Размер файла : 183 Кбайт

    Текст
    Формат : SubRip
    Метод сжатия : Без потерь
    Скриншоты для ознакомления


    Залил: msltel
    Размер скачиваемого торрента: 3.62 GB (3882681568 Bytes)

    Солдаты неудачи / Tropic Thunder (2008) BDRip by msltel | D, P, A | Режиссёрская версия торрент скачать бесплатно
    загрузка...
    Рейтинг →
     (голосов: 1, оценка 5/5, голосовать можно 1 раз )

    Другие торренты по теме:

  • Солдаты неудачи / Tropic Thunder (2008) BDRip-AVC | Режиссерская версия / Directors Cut
  • Сергей Волков - Чингисхан 3. Солдаты неудачи (2013) MP3
  • Солдаты неудачи / Tropic Thunder (2008) BDRip 720p от MediaClub | Theatrical Cut
  • Солдаты неудачи / Tropic Thunder (2008) BDRip 1080p от NoLimits-Team FireBit-Films | Theatrical Cut
  • Солдаты неудачи / Tropic Thunder (2008) BDRip 720p by msltel | D, P, A | Режиссёрская версия
  • Солдаты неудачи / Tropic Thunder (2008) BDRip 1080p by msltel | D, P, A | Режиссёрская версия скачать через торрент бесплатно
  • Солдаты неудачи / Tropic Thunder (2008) HDRip от Scarabey | Pежиссерская версия
  • Солдаты неудачи / Tropic Thunder / 2008 / ДБ, СТ / Blu-Ray CEE (1080p)


    • Комментарии (0):

      Информация

      Информация

        Посетители, находящиеся в группе Гости, не могут оставлять комментарии в данной новости.

        ↓ Меню



        ↓ Опрос

        А Вы добавили сайт в закладки?
        Да
        Не


        Top 10 за месяц (Фильмы)