.
Авторизация | Регистрация
Хочешь лучшие торренты? Добавь свой email!
Добавить
» » Пираньи / Piranha (1995) DVDRip от New-Team торрент скачать бесплатно




    Пираньи / Piranha (1995) DVDRip от New-Team торрент скачать бесплатно

    Опубликовал: Админ | Дата: 27-02-2015, 11:10 | Просмотров: 259


    Снималось в: США
    Создали в: Concorde-New Horizons, Showtime Networks Inc.
    Категория жанра: ужасы
    Создали в: 1995
    Время просмотра: 01:26:52

    Перевод текста: Профессиональный (многоголосый закадровый)
    Оригинальная аудиодорожка: нет
    Субтитры подготовлены: нет

    Главный режиссер: Скотт П. Леви / Scott P. Levy

    Актеры:
    Александра Пол /Alexandra Paul/, Уильям Кэтт /William Katt/, Дарлин Карр, Солейл Мун Фрай, Джеймс Кэрен /James Karen/, Майла Кунис, Кели О;Бирн /Kehli O;Byrne/, Ричард Израэл, Кац Гэрэс, Лилэнд Орсер /Leland Orser/, Бен Слэк, Джеймс И. Бродхед, Монти Маркэм /Monty Markham/...

    Сюжет:
    Закончилась ли холодная война, если ее наследие угрожает всему человечеству? Развалившиеся бараки, затянутый тиной бассейн, ржавые конструкции — вот, пожалуй, и все, что осталось от секретной военной базы. Очаровательная женщина — детектив и писатель — отшельник, попав на эти руины холодной войны в поисках пропавшей парочки влюбленных, сливают воду из бассейна в соседнюю речушку. Откуда им было знать, что здесь выводили гигантских пираний, стремительно размножающихся и пожирающих все на своем пути — смертельное оружие массового поражения. Из речки рыбы — людоеды попадают в озеро, и если они доберутся до океана, на земле может исчезнуть все живое!



    Исходник: DVD5 R5
    Тип релиза: DVDRip
    Контейнер: AVI

    Информация о видео: 640x480 (4:3), 25 fps, XviD ~ 1060 kbps avg, 0.138 bit/pixel
    Информация о звуке: 48 kHz, MP3 2.0, 128 kbps

    Раздача от:
    MediaInfo

    Общее
    Полное имя : Pirani.1995.DVDRip-745_New-team_by_AVP_Studio.avi
    Формат : AVI
    Формат/Информация : Audio Video Interleave
    Размер файла : 744 Мбайт
    Продолжительность : 1 ч. 26 м.
    Общий поток : 1197 Кбит/сек
    Программа кодирования : VirtualDubModRus 1.5.10.2 (build 2542/release)
    Библиотека кодирования : VirtualDubMod build 2542/release

    Видео
    Идентификатор : 0
    Формат : MPEG-4 Visual
    Профиль формата : Advanced Simple@L5
    Параметр BVOP формата : 1
    Параметр QPel формата : Нет
    Параметр GMC формата : Без точки перехода
    Параметр матрицы формата : Выборочная
    Идентификатор кодека : XVID
    Идентификатор кодека/Подсказка : XviD
    Продолжительность : 1 ч. 26 м.
    Битрейт : 1060 Кбит/сек
    Ширина : 640 пикселей
    Высота : 480 пикселей
    Соотношение сторон : 4:3
    Частота кадров : 25,000 кадров/сек
    Цветовое пространство : YUV
    Субдискретизация насыщенности : 4:2:0
    Битовая глубина : 8 бит
    Тип развёртки : Прогрессивная
    Метод сжатия : С потерями
    Бит/(Пиксели*Кадры) : 0.138
    Размер потока : 659 Мбайт (88%)
    Библиотека кодирования : XviD 73

    Аудио
    Идентификатор : 1
    Формат : MPEG Audio
    Версия формата : Version 1
    Профиль формата : Layer 3
    Идентификатор кодека : 55
    Идентификатор кодека/Подсказка : MP3
    Продолжительность : 1 ч. 26 м.
    Вид битрейта : Постоянный
    Битрейт : 128 Кбит/сек
    Каналы : 2 канала
    Частота : 48,0 КГц
    Метод сжатия : С потерями
    Размер потока : 79,5 Мбайт (11%)
    Выравнивание : Соединение по промежуткам
    Продолжительность промежутка : 40 мс. (1,00 видеокадр)
    Время предзагрузки промежутка : 504 мс.
    Библиотека кодирования : LAME3.99r
    Залил: AVPStudio
    Размер скачиваемого торрента: 744.13 MB (780275712 Bytes)


    Пираньи / Piranha (1995) DVDRip от New-Team торрент скачать бесплатно
    загрузка...
    Рейтинг →
     (голосов: 1, оценка 5/5, голосовать можно 1 раз )

    Другие торренты по теме:

  • Пираньи 3DD / Piranha 3DD (2012) BDRip-AVC | iPad
  • OST - Пираньи 3D / Piranha 3D (2010) MP3
  • Пираньи (2012) SATRip
  • Пираньи (2013) SATRip
  • Пираньи (2012) DVB
  • Пираньи / Piranha (1995) DVDRip-AVC от New-Team
  • Пираньи / Piranha (1995) DVDRip от New-Team
  • Пираньи / Piranha (2010) BDRemux 1080p


    • Комментарии (0):

      Информация

      Информация

        Посетители, находящиеся в группе Гости, не могут оставлять комментарии в данной новости.

        ↓ Меню



        ↓ Опрос

        А Вы добавили сайт в закладки?
        Да
        Не


        Top 10 за месяц (Фильмы)