.
Авторизация | Регистрация
Хочешь лучшие торренты? Добавь свой email!
Добавить
» » Последний рубеж / Homefront (2013) BDRemux 1080р от ExKinoRay | D, A торрент скачать бесплатно


    Последний рубеж / Homefront (2013) BDRemux 1080р от ExKinoRay | D, A торрент скачать бесплатно

    Опубликовал: Админ | Дата: 27-02-2015, 11:10 | Просмотров: 212



    Детально о кино

    Русское название: Последний рубеж
    Русское название в мировом прокате: Homefront
    Создали в: 2013
    Категория жанра: Боевик, криминал
    Снималось в: США, Homefront Productions, Millennium Films, Nu-Image Films
    Главный режиссер: Гэри Фледер
    Актеры: Джейсон Стэйтем, Джеймс Франко, Вайнона Райдер, Кейт Босворт, Рашель Лефевр, Фрэнк Грилло, Клэнси Браун, Изабела Видович, Криста Кэмпбелл, Стеффи Гроут


    Сюжет фильма: Фил Брокер — бывший агент из отдела борьбы с наркотиками. Фил переезжает в небольшой город вместе с семьей в надежде забыть прошлое. Но он узнает, что город только со стороны кажется тихим и спокойным местом, на самом деле он кишит насилием, наркотиками, а всем этим заправляет злодей по кличке Аллигатор…





    Файл

    Качество фильма: Blu-Ray Remux (1080p)
    Информация о видео: MPEG-4 AVC, 31994 Кбит/с, 1920x1080, 23.976 кадр/с
    Информация о звуке: Русский (AC3, 6 ch, 640 Кбит/с), (DTS-HD MA, 6 ch, 3966 Кбит/с), (DTS-HD MA, 6 ch, 4022 Кбит/с), (DTS-HD MA, 6 ch, 4089 Кбит/с), английский (DTS-HD MA, 6 ch, 4039 Кбит/с)
    Размер скачиваемого торрента: 34.78 ГБ
    Время просмотра: 01:40:34
    Перевод текста: Дублированный, авторский
    Субтитры: Русские, английские


    За исходник, большое спасибо АДмин BLUEBIRD
    Сохранены оригинальные чаптеры как на Blu-Ray.
    ----------------------------------------------------------------------------
    Аудио1: Русский (AC3, 6 ch, 640 Кбит/с) - Дублированный (Мосфильм мастер)
    Аудио2: Русский (DTS-HD MA, 6 ch, 4022 Кбит/с) - Дублированный (Мосфильм мастер)
    Аудио3: Русский (AC3, 6 ch, 640 Кбит/с) - Авторский одноголосый (Гаврилов)
    Аудио4: Русский (DTS-HD MA, 6 ch, 3966 Кбит/с) - Авторский одноголосый (Гаврилов)
    Аудио5: Русский (AC3, 6 ch, 640 Кбит/с) - Авторский одноголосый (Есарев) - Присутствует ненормативая лексика!
    Аудио6: Русский (DTS-HD MA, 6 ch, 4089 Кбит/с) - Авторский одноголосый (Есарев) - Присутствует ненормативая лексика!
    -------------------------------------------------------------------------------
    За перевод Гаврилова большое спасибо пользователям форума hdtracker.org:
    Denis2251, -Джосс-, KpucTo161, _MyxAmoP_, SavineX, rydanes, dunhill200, Tehnar, chefchef, milocerd0v, fly32, foxlight, Luka69, Role, nimph, ASUKEVICH, Loki, therox, Brown15,
    Диммон, Pain_70, carter64, edsz, shtift, Wolf_Larsen, Letyoha3, Xerman13, Rolly Tyler, feldeger, Iron Man, GaryH, dwser, Hattori Hanzo, audiolubitel.


    За перевод Дмитрия Есарева большое спасибо пользователю: mihey10.


    Инфо-файл

    Общее
    Уникальный идентификатор : 170471890172117824958043645799513967046 (0x803FB11988DCE17E94C12ABF882FC9C6)
    Полное имя : D:DownloadsHomefront.2013.BDRemux.1080p.ExKinoRay.mkv
    Формат : Matroska
    Версия формата : Version 2
    Размер файла : 34,8 Гбайт
    Продолжительность : 1 ч. 40 м.
    Режим общего битрейта : Переменный
    Общий поток : 49,5 Мбит/сек
    Название фильма : Последний рубеж.2013.Сборкa: ollan
    Дата кодирования : UTC 2014-05-26 23:45:47
    Программа кодирования : mkvmerge v5.6.0 (;Kenya Kane;) built on May 27 2012 16:44:04
    Библиотека кодирования : libebml v1.2.3 + libmatroska v1.3.0

    Видео
    Идентификатор : 1
    Формат : AVC
    Формат/Информация : Advanced Video Codec
    Профиль формата : High@L4.1
    Параметр CABAC формата : Да
    Параметр ReFrames формата : 4 кадра
    Идентификатор кодека : V_MPEG4/ISO/AVC
    Продолжительность : 1 ч. 40 м.
    Вид битрейта : Переменный
    Максимальный битрейт : 35,0 Мбит/сек
    Ширина : 1920 пикселей
    Высота : 1080 пикселей
    Соотношение сторон : 16:9
    Режим частоты кадров : Постоянный
    Частота кадров : 23,976 кадра/сек
    Цветовое пространство : YUV
    Субдискретизация насыщенности : 4:2:0
    Битовая глубина : 8 бит
    Тип развёртки : Прогрессивная
    Default : Да
    Forced : Нет

    Аудио #1
    Идентификатор : 2
    Формат : AC-3
    Формат/Информация : Audio Coding 3
    Расширение режима : CM (complete main)
    Параметр Endianness формата : Big
    Идентификатор кодека : A_AC3
    Продолжительность : 1 ч. 40 м.
    Вид битрейта : Постоянный
    Битрейт : 640 Кбит/сек
    Каналы : 6 каналов
    Расположение каналов : Front: L C R, Side: L R, LFE
    Частота : 48,0 КГц
    Битовая глубина : 16 бит
    Метод сжатия : С потерями
    Размер потока : 460 Мбайт (1%)
    Заголовок : Дублированный (Мосфильм мастер)
    Язык : Russian
    Default : Да
    Forced : Нет

    Аудио #2
    Идентификатор : 3
    Формат : DTS
    Формат/Информация : Digital Theater Systems
    Профиль формата : MA / Core
    Режим : 16
    Параметр Endianness формата : Big
    Идентификатор кодека : A_DTS
    Продолжительность : 1 ч. 40 м.
    Вид битрейта : Переменный
    Битрейт : Неизвестно / 1509 Кбит/сек
    Каналы : 6 каналов
    Расположение каналов : Front: L C R, Side: L R, LFE
    Частота : 48,0 КГц
    Битовая глубина : 24 бит
    Метод сжатия : Без потерь / Lossy
    Заголовок : Дублированный (Мосфильм мастер)
    Язык : Russian
    Default : Нет
    Forced : Нет

    Аудио #3
    Идентификатор : 4
    Формат : AC-3
    Формат/Информация : Audio Coding 3
    Расширение режима : CM (complete main)
    Параметр Endianness формата : Big
    Идентификатор кодека : A_AC3
    Продолжительность : 1 ч. 40 м.
    Вид битрейта : Постоянный
    Битрейт : 640 Кбит/сек
    Каналы : 6 каналов
    Расположение каналов : Front: L C R, Side: L R, LFE
    Частота : 48,0 КГц
    Битовая глубина : 16 бит
    Метод сжатия : С потерями
    Размер потока : 460 Мбайт (1%)
    Заголовок : Авторский одноголосый (Гаврилов)
    Default : Нет
    Forced : Нет

    Аудио #4
    Идентификатор : 5
    Формат : DTS
    Формат/Информация : Digital Theater Systems
    Профиль формата : MA / Core
    Режим : 16
    Параметр Endianness формата : Big
    Идентификатор кодека : A_DTS
    Продолжительность : 1 ч. 40 м.
    Вид битрейта : Переменный
    Битрейт : Неизвестно / 1509 Кбит/сек
    Каналы : 6 каналов
    Расположение каналов : Front: L C R, Side: L R, LFE
    Частота : 48,0 КГц
    Битовая глубина : 24 бит
    Метод сжатия : Без потерь / Lossy
    Заголовок : Авторский одноголосый (Гаврилов)
    Язык : Russian
    Default : Нет
    Forced : Нет

    Аудио #5
    Идентификатор : 6
    Формат : AC-3
    Формат/Информация : Audio Coding 3
    Расширение режима : CM (complete main)
    Параметр Endianness формата : Big
    Идентификатор кодека : A_AC3
    Продолжительность : 1 ч. 40 м.
    Вид битрейта : Постоянный
    Битрейт : 640 Кбит/сек
    Каналы : 6 каналов
    Расположение каналов : Front: L C R, Side: L R, LFE
    Частота : 48,0 КГц
    Битовая глубина : 16 бит
    Метод сжатия : С потерями
    Размер потока : 460 Мбайт (1%)
    Заголовок : Авторский одноголосый (Есарев)
    Язык : Russian
    Default : Нет
    Forced : Нет

    Аудио #6
    Идентификатор : 7
    Формат : DTS
    Формат/Информация : Digital Theater Systems
    Профиль формата : MA / Core
    Режим : 16
    Параметр Endianness формата : Big
    Идентификатор кодека : A_DTS
    Продолжительность : 1 ч. 40 м.
    Вид битрейта : Переменный
    Битрейт : Неизвестно / 1509 Кбит/сек
    Каналы : 6 каналов
    Расположение каналов : Front: L C R, Side: L R, LFE
    Частота : 48,0 КГц
    Битовая глубина : 24 бит
    Метод сжатия : Без потерь / Lossy
    Заголовок : Авторский одноголосый (Есарев)
    Язык : Russian
    Default : Нет
    Forced : Нет

    Аудио #7
    Идентификатор : 8
    Формат : DTS
    Формат/Информация : Digital Theater Systems
    Профиль формата : MA / Core
    Режим : 16
    Параметр Endianness формата : Big
    Идентификатор кодека : A_DTS
    Продолжительность : 1 ч. 40 м.
    Вид битрейта : Переменный
    Битрейт : Неизвестно / 1509 Кбит/сек
    Каналы : 6 каналов
    Расположение каналов : Front: L C R, Side: L R, LFE
    Частота : 48,0 КГц
    Битовая глубина : 24 бит
    Метод сжатия : Без потерь / Lossy
    Язык : English
    Default : Нет
    Forced : Нет

    Текст #1
    Идентификатор : 9
    Формат : UTF-8
    Идентификатор кодека : S_TEXT/UTF8
    Идентификатор кодека/Информация : UTF-8 Plain Text
    Заголовок : Full
    Язык : Russian
    Default : Нет
    Forced : Нет

    Текст #2
    Идентификатор : 10
    Формат : UTF-8
    Идентификатор кодека : S_TEXT/UTF8
    Идентификатор кодека/Информация : UTF-8 Plain Text
    Заголовок : Full
    Язык : English
    Default : Нет
    Forced : Нет

    Меню
    00:00:00.000 : :Chapter 01
    00:04:55.461 : :Chapter 02
    00:09:14.095 : :Chapter 03
    00:14:55.853 : :Chapter 04
    00:21:42.426 : :Chapter 05
    00:25:03.001 : :Chapter 06
    00:31:23.214 : :Chapter 07
    00:34:04.000 : :Chapter 08
    00:39:01.088 : :Chapter 09
    00:45:47.995 : :Chapter 10
    00:49:29.257 : :Chapter 11
    00:55:16.479 : :Chapter 12
    01:01:55.420 : :Chapter 13
    01:08:56.173 : :Chapter 14
    01:12:27.634 : :Chapter 15
    01:16:00.973 : :Chapter 16
    01:19:15.250 : :Chapter 17
    01:24:02.620 : :Chapter 18
    01:29:39.122 : :Chapter 19
    01:35:16.961 : :Chapter 20
    01:40:34.611 : :Chapter 21




    Скриншоты для ознакомления







    Релиз подготовил: Сборка:
    Залил: ollan
    Размер скачиваемого торрента: 34.78 GB (37343887941 Bytes)

    Последний рубеж / Homefront (2013) BDRemux 1080р от ExKinoRay | D, A торрент скачать бесплатно
    загрузка...
    Рейтинг →
     (голосов: 1, оценка 4/5, голосовать можно 1 раз )

    Другие торренты по теме:

  • Звездный путь 5: Последний рубеж / Star Trek V: The Final Frontier (1989) BDRip от HQCLUB
  • Сергей Михеенков - Серпухов. Последний рубеж. 49-я армия в битве за Москву. 1941 (2011) PDF
  • Тайны мира с Анной Чапман. Разоблачение. Последний рубеж (2013) SATRip
  • Последний рубеж: Защитники Галактики / Ginga Kikoutai Majestic Prince HDTV 720p | L2
  • Последний рубеж: Защитники Галактики / Ginga Kikoutai Majestic Prince HDTV 720p | L2
  • Последний рубеж (2013) скачать через торрент бесплатно
  • Последний рубеж / Homefront (2013) CAMRip скачать через торрент бесплатно
  • Последний рубеж / Homefront (2013) TS скачать через торрент бесплатно


    • Комментарии (0):

      Информация

      Информация

        Посетители, находящиеся в группе Гости, не могут оставлять комментарии в данной новости.

        ↓ Меню



        ↓ Опрос

        А Вы добавили сайт в закладки?
        Да
        Не


        Top 10 за месяц (Фильмы)