.
Авторизация | Регистрация
Хочешь лучшие торренты? Добавь свой email!
Добавить
» » Тайны и ложь / Secrets Lies (2014) HDTVRip 720p | VictoryFilms торрент скачать бесплатно




    Тайны и ложь / Secrets Lies (2014) HDTVRip 720p | VictoryFilms торрент скачать бесплатно

    Опубликовал: Админ | Дата: 27-02-2015, 11:10 | Просмотров: 216



    Детально о кино
    Русское название: Тайны и ложь
    Русское название в мировом прокате: Secrets Lies
    Создали в: 2014
    Категория жанра: триллер, драма
    Главный режиссер: Кейт Дэннис, Питер Сэлмон
    Актеры: Мартин Хендерсон, Энтони Хэйес, Диана Гленн, Эдриэнн Пикеринг, Филиппа Култхард, Пайпер Мориссей, Дамон Гамо, Хантер Стрэттон Боланд, Стивен Тэнди

    Сюжет фильма:
    Жизнь маляра Бена Ганделаха меняется, когда однажды утром во время пробежки он находит тело ребёнка в лесу. Это трагическое событие привлечёт пристальное внимание полиции и изменит отношение к нему не только соседей и клиентов, но и членов его собственной семьи. Удастся ли Бену докопаться до истины и раскрыть тайну смерти мальчика, не попавшись в тенёта всё новой лжи?



    Снималось в: Австралия
    Киностудия: Hoodlum Entertainment, Network Ten
    Время просмотра: ~ 00:43:00 серия
    Перевод текста: Любительский (двухголосый закадровый) VictoryFilms

    Файл
    Кодек для видео: h.264 / AC3
    Качество фильма: HDTVRip 720p
    Информация о видео: AVC, 1280x720 (16:9), 25.000 fps, 4 007 Kbps (0.174 bit/pixel)
    Информация о звуке: AC-3, 48.0 KHz, 2 ch, 224 Kbps, CBR

    Семпл

    Скриншоты для ознакомления
    Screenshots
    MediaInfo
    General
    Unique ID : 217596509989818383694915354022276323073 (0xA3B3903D7EFAF9F39BA750E401F95701)
    Complete name : /Secrets.Lies.s01/Secrets.Lies.s01.e01.VktoryFilms.mkv
    Format : Matroska
    Format version : Version 4 / Version 2
    File size : 1.30 GiB
    Duration : 43mn 1s
    Overall bit rate : 4 317 Kbps
    Encoded date : UTC 2014-03-14 10:10:41
    Writing application : mkvmerge v6.3.0 (;You can;t stop me!;) built on Jul 19 2013 16:27:38
    Writing library : Lavf54.63.104

    Video
    ID : 1
    Format : AVC
    Format/Info : Advanced Video Codec
    Format profile : High@L3.1
    Format settings, CABAC : Yes
    Format settings, ReFrames : 2 frames
    Codec ID : V_MPEG4/ISO/AVC
    Duration : 43mn 1s
    Bit rate : 4 007 Kbps
    Width : 1 280 pixels
    Height : 720 pixels
    Display aspect ratio : 16:9
    Frame rate mode : Variable
    Frame rate : 25.000 fps
    Color space : YUV
    Chroma subsampling : 4:2:0
    Bit depth : 8 bits
    Scan type : Progressive
    Bits/(Pixel*Frame) : 0.174
    Stream size : 1.20 GiB (93%)
    Default : Yes
    Forced : No

    Audio
    ID : 2
    Format : AC-3
    Format/Info : Audio Coding 3
    Mode extension : CM (complete main)
    Format settings, Endianness : Big
    Codec ID : A_AC3
    Duration : 43mn 1s
    Bit rate mode : Constant
    Bit rate : 224 Kbps
    Channel(s) : 2 channels
    Channel positions : Front: L R
    Sampling rate : 48.0 KHz
    Bit depth : 16 bits
    Compression mode : Lossy
    Delay relative to video : 24ms
    Stream size : 68.9 MiB (5%)
    Default : Yes
    Forced : No

    Размер скачиваемого торрента: 5.17 GB (5551993397 Bytes)

    Тайны и ложь / Secrets Lies (2014) HDTVRip 720p | VictoryFilms торрент скачать бесплатно
    загрузка...
    Рейтинг →
     (голосов: 1, оценка 4/5, голосовать можно 1 раз )

    Другие торренты по теме:

  • Тайны и загадки №01-11 (2013) PDF
  • Тайны и загадки №12-15 (2013) PDF
  • Тайны и ложь / Secrets and Lies (2015) HDTVRip 720p | Artsound
  • Тайны и ложь / Secrets and Lies (2016) WEBRip | Sunshine Studio
  • Тайны и ложь / Secrets and Lies (2016) WEBRip 720p | Sunshine Studio
  • Тайны и ложь / Secrets and Lies (2016) WEB-DLRip от GeneralFilm | D | Кириллица
  • Анджела Альберто - Один день в Древнем Риме. Повседневная жизнь, тайны и курьезы (2017) FB2
  • Кремлёв Сергей - Тайны 45-го. От Арденн и Балатона до Хингана и Хиросимы (2016) FB2


    • Комментарии (0):

      Информация

      Информация

        Посетители, находящиеся в группе Гости, не могут оставлять комментарии в данной новости.

        ↓ Меню



        ↓ Опрос

        А Вы добавили сайт в закладки?
        Да
        Не


        Top 10 за месяц (Фильмы)