.
Авторизация | Регистрация
Хочешь лучшие торренты? Добавь свой email!
Добавить
» » Курт Сеит и Шура / Kurt Seyit ve Sura (2014) HDTVRip | L торрент скачать бесплатно




    Курт Сеит и Шура / Kurt Seyit ve Sura (2014) HDTVRip | L торрент скачать бесплатно

    Опубликовал: Админ | Дата: 27-02-2015, 11:10 | Просмотров: 438



    Детально о кино
    Русское название: Курт Сеит и Шура
    Русское название в мировом прокате: Kurt Seyit ve Sura
    Создали в: 2014
    Категория жанра: драма, мелодрама, военный, история
    Главный режиссер: Хилаль Сарал
    Актеры: Кыванч Татлытуг, Фара Зейнеп Абдулла, Berk Er?er, Сердар Гёкхан, Седа Гувен, Sarp Can K?roglu, Биркан Сокуллу, Ushan ?akir, Сергей Тэсслер

    Сюжет фильма:
    Герои переживут крах правящей царской династии и Октябрьскую революцию. На фоне этих исторических событий, полных трагизма, горьких утрат, жестоких разочарований, и развернется история любви между бывшим офицером Царской армии лейтенантом Куртом Сеитом и шестнадцатилетней девушкой из аристократического рода Шурой.


    Официальный сайт

    Снималось в: Турция
    Киностудия: Ay Yapim, Star TV
    Время просмотра: ~01:45:00 серия
    Перевод текста: Любительский (многоголосый закадровый)

    Файл
    Кодек для видео: XviD / MP3
    Качество фильма: HDTVRip
    Информация о видео: MPEG4, XviD, 720x400 (16:9), 25.000 fps, 1 760 Kbps (0.245 bit/pixel)
    Информация о звуке: MP3, 44.1 KHz, 2 ch, 192 Kbps, CBR

    Семпл

    Скриншоты для ознакомления
    Screenshots
    MediaInfo
    General
    Complete name : /Kurt.Seit.i.Schura.2014.HDTVRip/Kurt.Seit.i.Schura.01.seriya.Russ.2014.HDTVRip.avi
    Format : AVI
    Format/Info : Audio Video Interleave
    File size : 1.37 GiB
    Duration : 1h 39mn
    Overall bit rate : 1 962 Kbps

    Video
    ID : 0
    Format : MPEG-4 Visual
    Format profile : Advanced Simple@L5
    Format settings, BVOP : 2
    Format settings, QPel : No
    Format settings, GMC : No warppoints
    Format settings, Matrix : Default (H.263)
    Codec ID : XVID
    Codec ID/Hint : XviD
    Duration : 1h 39mn
    Bit rate : 1 760 Kbps
    Width : 720 pixels
    Height : 400 pixels
    Display aspect ratio : 16:9
    Frame rate : 25.000 fps
    Color space : YUV
    Chroma subsampling : 4:2:0
    Bit depth : 8 bits
    Scan type : Progressive
    Compression mode : Lossy
    Bits/(Pixel*Frame) : 0.245
    Stream size : 1.23 GiB (90%)
    Writing library : XviD 64

    Audio
    ID : 1
    Format : MPEG Audio
    Format version : Version 1
    Format profile : Layer 3
    Codec ID : 55
    Codec ID/Hint : MP3
    Duration : 1h 39mn
    Bit rate mode : Constant
    Bit rate : 192 Kbps
    Channel(s) : 2 channels
    Sampling rate : 44.1 KHz
    Compression mode : Lossy
    Stream size : 137 MiB (10%)
    Alignment : Split accross interleaves
    Interleave, duration : 40 ms (1.00 video frame)
    Interleave, preload duration : 500 ms
    Раздача ведётся путём добавления новых серий
    Раздача ведётся путём добавления новых серий; при каждом добавлении создаётся новый торрент. Чтобы начать докачку новой серии, пользователям необходимо сделать следующее:
    (1) остановить скачивание,
    (2) удалить старый торрент у себя из клиента (старые серии удалять не надо),
    (3) скачать новый торрент и запустить его у себя в клиенте вместо старого, при этом указать клиенту путь в старую папку куда и должно происходить скачивание новых серий.

    Ваш клиент при этом должен произвести хеширование (проверку) старой папки (если не производит сам - помогите ему сделать это), и будет докачивать только те серии которых у вас ещё нет. Старые серии при этом не удаляются, а продолжают раздаваться!

    Eсли вы уже удалили старые серии, то предотвратить повторную закачку старых серий можно, отжав галочку в соответствующих местах при запуске нового торрента. По возможности, желательно не удалять старые серии как можно дольше чтобы релизёр не столько продолжал раздавать старые серии, а смог сконцентрироваться на новых.

    Размер скачиваемого торрента: 5.85 GB (6278403310 Bytes)

    Курт Сеит и Шура / Kurt Seyit ve Sura (2014) HDTVRip | L торрент скачать бесплатно
    загрузка...
    Рейтинг →
     (голосов: 1, оценка 5/5, голосовать можно 1 раз )

    Другие торренты по теме:

  • Курт Сеит и Александра / Kurt Seyit ve Sura (2014) WEB-DLRip | D
  • Курт Сеит и Александра / Kurt Seyit ve Sura (2014) WEB-DLRip | D
  • Курт Сеит и Александра / Kurt Seyit ve Sura (2014) SATRip | D


    • Комментарии (0):

      Информация

      Информация

        Посетители, находящиеся в группе Гости, не могут оставлять комментарии в данной новости.

        ↓ Меню



        ↓ Опрос

        А Вы добавили сайт в закладки?
        Да
        Не


        Top 10 за месяц (Фильмы)