.
Авторизация | Регистрация
Хочешь лучшие торренты? Добавь свой email!
Добавить
» » Стигматы / Stigmata (1999) WEB-DLRip от Leon-masl | D скачать через торрент бесплатно




    Стигматы / Stigmata (1999) WEB-DLRip от Leon-masl | D скачать через торрент бесплатно

    Опубликовал: Админ | Дата: 27-02-2015, 11:10 | Просмотров: 227



    Детально о кино
    Русское название: Стигматы
    Русское название в мировом прокате: Stigmata
    Создали в: 1999
    Категория жанра: ужасы, триллер, детектив
    Главный режиссер: Руперт Вейнрайт
    Актеры: Патриция Аркетт, Гэбриел Бирн, Джонатан Прайс, Ниа Лонг, Томас Копаче, Раде Шербеджия, Энрико Колантони, Дик Латесса, Порша де Росси, Патрик Малдун

    Сюжет фильма:
    Фрэнки Пейдж живет спокойно, свободно и беззаботно. И меньше всего ее беспокоят вопросы о Боге. Все это в одночасье меняется, когда ее поражают стигматы - кровоточащие раны распятого Христа. Вскоре на нее обращает внимание отец Кернан, уполномоченный следователь из Ватикана.

    Одновременно и другой священнослужитель, коррумпированный кардинал Хаусмен, понимает, что Фрэнки избрана для передачи сокрушительного пророчества, которое может навредить официальной церкви. Он убежден, что необходимо любым способом заставить ее замолчать.

    Поэтому Кернан, рискуя жизнью, пытается спасти Фрэнки и получить послание, не только разбивающее устои римско-католической церкви, но и навсегда изменяющее судьбу человечества.




    Снималось в: США
    Время просмотра: 01:42:12
    Перевод текста: Дубляж,|iTunes Russia|

    Файл
    Кодек для видео: XviD
    Качество фильма: WEB-DLRip
    Информация о видео: 704x304, 23,976 fps, 1846 kbps
    Информация о звуке: AC3, 2 ch, 192 kbps
    MI
    Общее
    Полное имя : Stigmata.1999.WEB-DLRip.avi
    Формат : AVI
    Формат/Информация : Audio Video Interleave
    Размер файла : 1,46 Гбайт
    Продолжительность : 1 ч. 42 м.
    Общий поток : 2047 Кбит/сек
    Программа кодирования : VirtualDubMod 1.5.10.2 (build 2542/release)
    Библиотека кодирования : VirtualDubMod build 2542/release

    Видео
    Идентификатор : 0
    Формат : MPEG-4 Visual
    Профиль формата : Advanced Simple@L5
    Параметр BVOP формата : 1
    Параметр QPel формата : Нет
    Параметр GMC формата : Без точки перехода
    Параметр матрицы формата : Выборочная
    Идентификатор кодека : XVID
    Идентификатор кодека/Подсказка : XviD
    Продолжительность : 1 ч. 42 м.
    Битрейт : 1846 Кбит/сек
    Ширина : 704 пикс.
    Высота : 304 пикс.
    Соотношение сторон : 2,35:1
    Частота кадров : 23,976 кадр/сек
    Цветовое пространство : YUV
    Подвыборка цветности : 4:2:0
    Битовая глубина : 8 бит
    Тип развёртки : Прогрессивная
    Метод сжатия : С потерями
    Бит/(Пиксели*Кадры) : 0.360
    Размер потока : 1,32 Гбайт (90%)
    Библиотека кодирования : XviD 65

    Аудио
    Идентификатор : 1
    Формат : AC-3
    Формат/Информация : Audio Coding 3
    Расширение режима : CM (complete main)
    Идентификатор кодека : 2000
    Продолжительность : 1 ч. 42 м.
    Вид битрейта : Постоянный
    Битрейт : 192 Кбит/сек
    Канал(ы) : 2 канала(ов)
    Расположение каналов : Front: L R
    Частота : 48,0 КГц
    Битовая глубина : 16 бит
    Метод сжатия : С потерями
    Размер потока : 140 Мбайт (9%)
    Выравнивание : Разделение по промежуткам
    Продолжительность промежутка : 42 мс. (1,00 видеокадр)
    Время предзагрузки промежутка : 500 ms
    Скриншоты для ознакомления


    Релиз подготовил: Leon-masl
    Залил: leon-masl
    Размер скачиваемого торрента: 1.46 GB (1569124352 Bytes)

    Стигматы / Stigmata (1999) WEB-DLRip от Leon-masl | D скачать через торрент бесплатно
    загрузка...
    Рейтинг →
     (голосов: 1, оценка 3/5, голосовать можно 1 раз )

    Другие торренты по теме:

  • Стигматы / Stigmata (1999) HDTVRip | P, A
  • Стигматы / Stigmata (1999) BDRip-AVC | D, P, A
  • Стигматы / Stigmata (1999) BDRip от HQCLUB
  • Стигматы / Stigmata (1999) BDRip 1080p | D, P, A


    • Комментарии (0):

      Информация

      Информация

        Посетители, находящиеся в группе Гости, не могут оставлять комментарии в данной новости.

        ↓ Меню



        ↓ Опрос

        А Вы добавили сайт в закладки?
        Да
        Не


        Top 10 за месяц (Фильмы)