.
Авторизация | Регистрация
Хочешь лучшие торренты? Добавь свой email!
Добавить
» » Готова на всё / Malice (1993) HDTVRip от Leon-masl | P2 скачать через торрент бесплатно


    Готова на всё / Malice (1993) HDTVRip от Leon-masl | P2 скачать через торрент бесплатно

    Опубликовал: Админ | Дата: 27-02-2015, 11:10 | Просмотров: 198



    Детально о кино
    Русское название: Готова на всё
    Русское название в мировом прокате: Malice
    Создали в: 1993
    Категория жанра: триллер, криминал, детектив
    Главный режиссер: Хэролд Беккер / Harold Becker
    Актеры: Алек Болдуин /Alec Baldwin/, Николь Кидман /Nicole Kidman/, Билл Пуллман /Bill Pullman/, Биби Ньюирт , /Bebe Neuwirth/, Джордж С. Скотт /George C. Scott/, Энн Бэнкрофт /Anne Bancroft/, Питер Галлахер /Peter Gallagher/, Джозеф Соммер /Josef Sommer/, Дебра Фарентино /Debrah Farentino/, Уильям Дафф-Гриффин /William Duff-Griffin/, Тобин Белл /Tobin Bell/, Дэвид Боуи /David Bowie/, Майкл Хэтт /Michael Hatt/, Дайэна Беллами /Diana Bellamy/, Пола Плам /Paula Plum/, Гвинет Пэлтроу /Gwyneth Paltrow/

    Сюжет фильма:
    В этом впечатляющем триллере, который можно, пожалуй, поставить в один ряд с Молчанием ягнят и Основным инстинктом, конечно же, замешана женщина. И замес, надо отметить, крутой. И хотя людоеды и маньяки отсутствуют, в конце фильма вам может быть очень не по себе. Чтобы не портить удовольствие, больше о сюжете ни слова. Сами имена - Болдуин и Кидман - говорят за себя, а выложились эти звезды на все сто. (Иванов М.)




    Снималось в: США, Канада
    Время просмотра: 01:46:33
    Перевод текста: Профессиональный (двухголосый закадровый) DVD-R5

    Файл
    Кодек для видео: XviD
    Качество фильма: HDTVRip
    Информация о видео: 720x400, 23.976 fps, 1762 kbps
    Информация о звуке: 48 kHz, AC3 Dolby Digital, 2/0 (L,R) ch, ~192 kbps
    MI
    Общее
    Полное имя : Malice.1993HDTVRip.avi
    Формат : AVI
    Формат/Информация : Audio Video Interleave
    Размер файла : 1,46 Гбайт
    Продолжительность : 1 ч. 46 м.
    Общий поток : 1963 Кбит/сек
    Программа кодирования : VirtualDubMod 1.5.10.3 | www.virtualdub-fr.org || (build 2550/release)
    Библиотека кодирования : VirtualDubMod build 2550/release

    Видео
    Идентификатор : 0
    Формат : MPEG-4 Visual
    Профиль формата : Advanced Simple@L5
    Параметр BVOP формата : 1
    Параметр QPel формата : Нет
    Параметр GMC формата : Без точки перехода
    Параметр матрицы формата : Выборочная
    Идентификатор кодека : XVID
    Идентификатор кодека/Подсказка : XviD
    Продолжительность : 1 ч. 46 м.
    Битрейт : 1762 Кбит/сек
    Ширина : 720 пикс.
    Высота : 400 пикс.
    Соотношение сторон : 16:9
    Частота кадров : 23,976 кадр/сек
    Цветовое пространство : YUV
    Подвыборка цветности : 4:2:0
    Битовая глубина : 8 бит
    Тип развёртки : Прогрессивная
    Метод сжатия : С потерями
    Бит/(Пиксели*Кадры) : 0.255
    Размер потока : 1,31 Гбайт (90%)
    Библиотека кодирования : XviD 65

    Аудио
    Идентификатор : 1
    Формат : AC-3
    Формат/Информация : Audio Coding 3
    Расширение режима : CM (complete main)
    Идентификатор кодека : 2000
    Продолжительность : 1 ч. 46 м.
    Вид битрейта : Постоянный
    Битрейт : 192 Кбит/сек
    Канал(ы) : 2 канала(ов)
    Расположение каналов : Front: L R
    Частота : 48,0 КГц
    Битовая глубина : 16 бит
    Метод сжатия : С потерями
    Размер потока : 146 Мбайт (10%)
    Выравнивание : Разделение по промежуткам
    Продолжительность промежутка : 42 мс. (1,00 видеокадр)
    Время предзагрузки промежутка : 500 ms
    Скриншоты для ознакомления


    Релиз подготовил: Leon-masl
    Залил: leon-masl
    Размер скачиваемого торрента: 1.46 GB (1568686080 Bytes)

    Готова на всё / Malice (1993) HDTVRip от Leon-masl | P2 скачать через торрент бесплатно
    загрузка...
    Рейтинг →
     (голосов: 1, оценка 4/5, голосовать можно 1 раз )

    Другие торренты по теме:

  • Готова на всё / Malice (1993) BDRip от HQCLUB
  • Готова на всё / Malice (1993) BDRip 1080p | P2, A
  • Готова на всё / Malice (1993) BDRip от Leon-masl | P2


    • Комментарии (0):

      Информация

      Информация

        Посетители, находящиеся в группе Гости, не могут оставлять комментарии в данной новости.

        ↓ Меню



        ↓ Опрос

        А Вы добавили сайт в закладки?
        Да
        Не


        Top 10 за месяц (Фильмы)