.
Авторизация | Регистрация
Хочешь лучшие торренты? Добавь свой email!
Добавить
» » День труда / Labor Day (2013) BDRip 1080p | Лицензия скачать через торрент бесплатно




    День труда / Labor Day (2013) BDRip 1080p | Лицензия скачать через торрент бесплатно

    Опубликовал: Админ | Дата: 27-02-2015, 11:10 | Просмотров: 196



    Детально о кино
    Русское название: День труда
    Русское название в мировом прокате: Labor Day
    Создали в: 2013
    Категория жанра: Драма
    Главный режиссер: Джейсон Райтман
    Актеры: Кейт Уинслет, Джош Бролин, Гэттлин Гриффит, Тоби Магуайр, Том Липински, Майка Бакли, Кларк Грегг, Джеймс Ван Дер Бик, Дж.К. Симмонс, Брук Смит

    Сюжет фильма: Одинокая мать укрывает беглого убийцу в своем доме, где живет вместе с сыном. Полиция обшаривает весь городок в поисках преступника, а мать-одиночка, тем временем, узнает о своем госте горькую правду и перестает понимать, что же ей делать.



    Снималось в: США, Indian Paintbrush, Mr. Mudd, Right of Way Films
    Время просмотра: 01:51:13
    Перевод текста: Профессиональный (полное дублирование) - Лицензия

    Файл
    Качество фильма: BDRip 1080p
    Тип видео: MKV
    Информация о видео: MPEG4/AVC, 1920х800 (2.40:1), 9200 Кбит/сек, 23.976 кадра/сек
    Информация о звуке 1: AC3, 6 каналов, 640 Кбит/сек
    Информация о звуке 2: AC3, 6 каналов, 640 Кбит/сек
    Субтитры: Русские, английские (Full, SDH)
    Навигация по главам: Есть
    Информация о видеоряд: HDWinG

    MediaInfo:
    Общее
    Уникальный идентификатор : 254449334456859500798521540085997332177 (0xBF6D28C5001740D6AEA2C04E7F3766D1)
    Полное имя : Labor Day. (2013) BDRip 1080p.mkv
    Формат : Matroska
    Версия формата : Version 2
    Размер файла : 8,14 Гбайт
    Продолжительность : 1 ч. 51 м.
    Общий поток : 10,5 Мбит/сек
    Название фильма : Labor Day. 2013
    Дата кодирования : UTC 2014-05-28 14:04:04
    Программа кодирования : mkvmerge v5.8.0 (;No Sleep / Pillow;) built on Sep 2 2012 15:37:04
    Библиотека кодирования : libebml v1.2.3 + libmatroska v1.3.0

    Видео
    Идентификатор : 1
    Формат : AVC
    Формат/Информация : Advanced Video Codec
    Профиль формата : High@L4.1
    Параметр CABAC формата : Да
    Параметр ReFrames формата : 5 кадров
    Идентификатор кодека : V_MPEG4/ISO/AVC
    Продолжительность : 1 ч. 51 м.
    Битрейт : 9200 Кбит/сек
    Ширина : 1920 пикселей
    Высота : 800 пикселей
    Соотношение сторон : 2,40:1
    Режим частоты кадров : Постоянный
    Частота кадров : 23,976 кадра/сек
    Цветовое пространство : YUV
    Субдискретизация насыщенности : 4:2:0
    Битовая глубина : 8 бит
    Тип развёртки : Прогрессивная
    Бит/(Пиксели*Кадры) : 0.250
    Размер потока : 6,99 Гбайт (86%)
    Заголовок : HDWinG
    Библиотека кодирования : x264 core 142 r2409+42 04be48a tMod 8-bit@4:2:0 X86_64
    Настройки программы : cabac=1 / ref=5 / deblock=1:-3:-2 / analyse=0x3:0x113 / me=umh / subme=11 / psy=1 / fade_compensate=0.00 / psy_rd=1.00:0.00 / mixed_ref=1 / me_range=32 / chroma_me=1 / trellis=2 / 8x8dct=1 / cqm=0 / deadzone=21,11 / fast_pskip=0 / chroma_qp_offset=-2 / threads=18 / lookahead_threads=3 / sliced_threads=0 / nr=0 / decimate=0 / interlaced=0 / bluray_compat=0 / constrained_intra=0 / fgo=0 / bframes=8 / b_pyramid=2 / b_adapt=2 / b_bias=0 / direct=3 / weightb=1 / open_gop=0 / weightp=2 / keyint=240 / keyint_min=24 / scenecut=40 / intra_refresh=0 / rc=2pass / mbtree=0 / bitrate=9200 / ratetol=1.0 / qcomp=0.70 / qpmin=0:0:0 / qpmax=69:69:69 / qpstep=4 / cplxblur=20.0 / qblur=0.5 / ip_ratio=1.20 / pb_ratio=1.20 / aq=4:0.85 / aq-sensitivity=10.00 / aq-factor=1.00:1.00:1.00 / aq2=0 / aq3=0
    Язык : English
    Default : Да
    Forced : Нет

    Аудио #1
    Идентификатор : 2
    Формат : AC-3
    Формат/Информация : Audio Coding 3
    Расширение режима : CM (complete main)
    Параметр Endianness формата : Big
    Идентификатор кодека : A_AC3
    Продолжительность : 1 ч. 51 м.
    Вид битрейта : Постоянный
    Битрейт : 640 Кбит/сек
    Каналы : 6 каналов
    Расположение каналов : Front: L C R, Side: L R, LFE
    Частота : 48,0 КГц
    Битовая глубина : 16 бит
    Метод сжатия : С потерями
    Размер потока : 509 Мбайт (6%)
    Заголовок : Дубляж BluRay CEE
    Язык : Russian
    Default : Да
    Forced : Нет

    Аудио #2
    Идентификатор : 3
    Формат : AC-3
    Формат/Информация : Audio Coding 3
    Расширение режима : CM (complete main)
    Параметр Endianness формата : Big
    Идентификатор кодека : A_AC3
    Продолжительность : 1 ч. 51 м.
    Вид битрейта : Постоянный
    Битрейт : 640 Кбит/сек
    Каналы : 6 каналов
    Расположение каналов : Front: L C R, Side: L R, LFE
    Частота : 48,0 КГц
    Битовая глубина : 16 бит
    Метод сжатия : С потерями
    Размер потока : 509 Мбайт (6%)
    Заголовок : Eng
    Язык : English
    Default : Нет
    Forced : Нет

    Текст #1
    Идентификатор : 4
    Формат : UTF-8
    Идентификатор кодека : S_TEXT/UTF8
    Идентификатор кодека/Информация : UTF-8 Plain Text
    Заголовок : Full
    Язык : Russian
    Default : Нет
    Forced : Нет

    Текст #2
    Идентификатор : 5
    Формат : UTF-8
    Идентификатор кодека : S_TEXT/UTF8
    Идентификатор кодека/Информация : UTF-8 Plain Text
    Заголовок : Full
    Язык : English
    Default : Нет
    Forced : Нет

    Текст #3
    Идентификатор : 6
    Формат : UTF-8
    Идентификатор кодека : S_TEXT/UTF8
    Идентификатор кодека/Информация : UTF-8 Plain Text
    Заголовок : SDH
    Язык : English
    Default : Нет
    Forced : Нет

    Меню
    00:00:00.000 : en:00:00:00.000
    00:06:36.313 : en:00:06:36.313
    00:12:46.641 : en:00:12:46.641
    00:18:25.021 : en:00:18:25.021
    00:25:39.163 : en:00:25:39.163
    00:33:48.360 : en:00:33:48.360
    00:41:06.214 : en:00:41:06.214
    00:48:19.480 : en:00:48:19.480
    00:57:00.459 : en:00:57:00.459
    01:07:58.032 : en:01:07:58.032
    01:13:12.346 : en:01:13:12.346
    01:19:58.752 : en:01:19:58.752
    01:22:27.943 : en:01:22:27.943
    01:29:03.255 : en:01:29:03.255
    01:33:53.253 : en:01:33:53.253
    01:46:36.932 : en:01:46:36.932

    Скриншоты для ознакомления:


    Релиз подготовил:
    Размер скачиваемого торрента: 8.14 GB (8745270935 Bytes)

    День труда / Labor Day (2013) BDRip 1080p | Лицензия скачать через торрент бесплатно
    загрузка...
    Рейтинг →
     (голосов: 1, оценка 5/5, голосовать можно 1 раз )

    Другие торренты по теме:

  • День труда / Labor Day (2013) BDRemux 1080p от NovaLan скачать через торрент бесплатно
  • День труда / Labor Day (2013) BDRip 1080p от CINEMANIA | L1 скачать через торрент бесплатно
  • День труда / Labor Day (2013) BDRip 720p от CINEMANIA | L1 скачать через торрент бесплатно
  • День труда / Labor Day (2013) HDRip | L1 скачать через торрент бесплатно
  • День труда / Labor Day (2013) BDRip-AVC | L1 скачать через торрент бесплатно
  • День труда / Labor Day (2013) BDRip-AVC от MediaClub | D | Лицензия скачать через торрент бесплатно
  • День труда / Labor Day (2013) BDRemux 1080p от ExKinoRay | D | Лицензия скачать через торрент бесплатно
  • День труда / Labor Day (2013) HDRip | Лицензия скачать через торрент бесплатно


    • Комментарии (0):

      Информация

      Информация

        Посетители, находящиеся в группе Гости, не могут оставлять комментарии в данной новости.

        ↓ Меню



        ↓ Опрос

        А Вы добавили сайт в закладки?
        Да
        Не


        Top 10 за месяц (Фильмы)