.
Авторизация | Регистрация
» » Солдаты неудачи / Tropic Thunder (2008) BDRip 1080p by msltel | D, P, A | Режиссёрская версия скачать через торрент бесплатно




    Солдаты неудачи / Tropic Thunder (2008) BDRip 1080p by msltel | D, P, A | Режиссёрская версия скачать через торрент бесплатно

    Опубликовал: Админ | Дата: 27-02-2015, 11:10 | Просмотров: 188



    Русское название: Солдаты неудачи (Режиссёрская версия)
    Русское название в мировом прокате: Tropic Thunderr (Director;s cut)
    Создали в: 2008
    Категория жанра: Боевик, комедия
    Снималось в: США, Германия, Великобритания, DreamWorks SKG, Goldcrest Pictures, Red Hour Films, Road Rebel
    Главный режиссер: Бен Стиллер
    Актеры: Бен Стиллер, Роберт Дауни мл., Джек Блэк, Брэндон Т. Джексон, Ник Нолти, Стив Кугэн, Билл Хэйдер, Джастин Теру, Трю Трэн, Джей Барушель, Дэнни МакБрайд, Брэндон Су Ху, Реджи Ли, Андреа Де Оливейра, Надин Эллис, Мэтт Левин, Дэвид Прессман, Нилл Скайлар, Том Круз, Валери Эзлинн, Мэттью МакКонахи

    Сюжет фильма: Камера. Мотор. Начали! В реальных джунглях проходят съёмки суперблокбастера с участием больших звёзд, среди которых крутой герой боевиков, мастер туалетного юмора, чернокожий рэппер Альпа Чино и обладатель всех кинопремий, специально для фильма перекрасивший кожу в чёрный цвет. Когда у продюсеров закончились деньги и съёмки были остановлены, актёрам про это не сказали. Поэтому они с холостыми патронами с лёгкостью вступают в неравный бой с настоящими вооружёнными до зубов бандитами-головорезами…

    Качество фильма: BDRip 1080p
    Размер скачиваемого торрента: 14.03 ГБ
    Время просмотра: 02:01:08

    Информация о видео: MPEG-4 AVC, 9819 Кбит/с, 1920x818
    Информация о звуке 1: русский, 48 kHz, AC3, 6 ch, 640 kbps avg, Дублированный, с добавлением многоголоски
    Информация о звуке 2: русский, 48 kHz, AC3, 6 ch, 448 kbps avg, Профессиональный многоголосый, Киномания
    Информация о звуке 3: русский, 48 kHz, AC3, 6 ch, 448 kbps avg, Профессиональный многоголосый, студия Кравец
    Информация о звуке 4: русский, 48 kHz, DTS, 6 ch, 1509 kbps avg, Авторский, Леонид Володарский
    Информация о звуке 5: русский, 48 kHz, DTS, 6 ch, 1509 kbps avg, Авторский, Юрий Сербин
    Субтитры: английские (хардсабы на неанглийскую речь)

    Внешние файлы
    Информация о звуке: русский, 48 kHz, AC3, 6 ch, 448 kbps avg, Авторский, Леонид Володарский
    Информация о звуке: русский, 48 kHz, AC3, 6 ch, 448 kbps avg, Авторский, Юрий Сербин
    Информация о звуке: английский, 48 kHz, AC3, 6 ch, 640 kbps avg, Оригинал
    Информация о звуке: английский, 48 kHz, AC3, 2 ch, 192 kbps avg, Комментарий режиссёра и продюсеров
    Информация о звуке: английский, 48 kHz, AC3, 2 ch, 192 kbps avg, Комментарий актёров
    Субтитры: русские
    Субтитры: английские

    Исходник: KpucTo161 (HDtracker)

    Сравнение с исходником



    Награды
    Оскар, 2009 год
    Номинации (1):
    Лучшая мужская роль второго плана (Роберт Дауни мл.)

    Золотой глобус, 2009 год
    Номинации (2):
    Лучшая мужская роль второго плана (Том Круз)
    Лучшая мужская роль второго плана (Роберт Дауни мл.)

    Премия канала MTV, 2009 год
    Номинации (1):
    Самый безумный эпизод

    Британская академия, 2009 год
    Номинации (1):
    Лучшая мужская роль второго плана (Роберт Дауни мл.)

    Жорж, 2009 год
    Номинации (1):
    Лучший высокобюджетный/зрелищный фильм

    Премия Гильдии актеров, 2009 год
    Номинации (1):
    Лучшая мужская роль второго плана (Роберт Дауни мл.)
    MediaInfo + Лог х264
    Общее
    Полное имя : D:VideoSoldaty neudachi.DirCut.2008.BDRip.1080pSoldaty neudachi.DirCut.2008.AVO.rus.Л.Володарский.ac3
    Формат : AC-3
    Формат/Информация : Audio Coding 3
    Размер файла : 388 Мбайт
    Продолжительность : 2 ч. 1 м.
    Режим общего битрейта : Постоянный
    Общий поток : 448 Кбит/сек

    Аудио
    Формат : AC-3
    Формат/Информация : Audio Coding 3
    Расширение режима : CM (complete main)
    Параметр Endianness формата : Big
    Продолжительность : 2 ч. 1 м.
    Вид битрейта : Постоянный
    Битрейт : 448 Кбит/сек
    Каналы : 6 каналов
    Расположение каналов : Front: L C R, Side: L R, LFE
    Частота : 48,0 КГц
    Битовая глубина : 16 бит
    Метод сжатия : С потерями
    Размер потока : 388 Мбайт (100%)

    Общее
    Полное имя : D:VideoSoldaty neudachi.DirCut.2008.BDRip.1080pSoldaty neudachi.DirCut.2008.AVO.rus.Ю.Сербин.ac3
    Формат : AC-3
    Формат/Информация : Audio Coding 3
    Размер файла : 388 Мбайт
    Продолжительность : 2 ч. 1 м.
    Режим общего битрейта : Постоянный
    Общий поток : 448 Кбит/сек

    Аудио
    Формат : AC-3
    Формат/Информация : Audio Coding 3
    Расширение режима : CM (complete main)
    Параметр Endianness формата : Big
    Продолжительность : 2 ч. 1 м.
    Вид битрейта : Постоянный
    Битрейт : 448 Кбит/сек
    Каналы : 6 каналов
    Расположение каналов : Front: L C R, Side: L R, LFE
    Частота : 48,0 КГц
    Битовая глубина : 16 бит
    Метод сжатия : С потерями
    Размер потока : 388 Мбайт (100%)

    Общее
    Уникальный идентификатор : 232864412887220993571299072976290141221 (0xAF300DF8B41C9CFEAA17D101AC5D5425)
    Полное имя : D:VideoSoldaty neudachi.DirCut.2008.BDRip.1080pSoldaty neudachi.DirCut.2008.BDRip.1080p.mkv
    Формат : Matroska
    Версия формата : Version 4 / Version 2
    Размер файла : 12,4 Гбайт
    Продолжительность : 2 ч. 1 м.
    Общий поток : 14,7 Мбит/сек
    Дата кодирования : UTC 2014-05-28 10:09:11
    Программа кодирования : mkvmerge v6.9.1 (;Blue Panther;) 64bit built on Apr 18 2014 18:23:38
    Библиотека кодирования : libebml v1.3.0 + libmatroska v1.4.1

    Видео
    Идентификатор : 1
    Формат : AVC
    Формат/Информация : Advanced Video Codec
    Профиль формата : High@L4.1
    Параметр CABAC формата : Да
    Параметр ReFrames формата : 4 кадра
    Идентификатор кодека : V_MPEG4/ISO/AVC
    Продолжительность : 2 ч. 1 м.
    Битрейт : 9819 Кбит/сек
    Ширина : 1920 пикселей
    Высота : 818 пикселей
    Соотношение сторон : 2,35:1
    Режим частоты кадров : Постоянный
    Частота кадров : 23,976 кадра/сек
    Цветовое пространство : YUV
    Субдискретизация насыщенности : 4:2:0
    Битовая глубина : 8 бит
    Тип развёртки : Прогрессивная
    Бит/(Пиксели*Кадры) : 0.261
    Размер потока : 8,31 Гбайт (67%)
    Заголовок : BDRip -- STarankov
    Библиотека кодирования : x264 core 138 r2358 9e941d1
    Залил: msltel
    Размер скачиваемого торрента: 14.03 GB (15069139756 Bytes)


    Солдаты неудачи / Tropic Thunder (2008) BDRip 1080p by msltel | D, P, A | Режиссёрская версия скачать через торрент бесплатно
    загрузка...
    Рейтинг →
     (голосов: 1, оценка 3/5, голосовать можно 1 раз )

    Другие торренты по теме:

  • Солдаты неудачи / Tropic Thunder (2008) BDRip-AVC | Режиссерская версия / Directors Cut торрент скачать бесплатно
  • Сергей Волков - Чингисхан 3. Солдаты неудачи (2013) MP3 торрент скачать бесплатно
  • Солдаты неудачи / Tropic Thunder (2008) BDRip 720p от MediaClub | Theatrical Cut торрент скачать бесплатно
  • Солдаты неудачи / Tropic Thunder (2008) BDRip 1080p от NoLimits-Team FireBit-Films | Theatrical Cut торрент скачать бесплатно
  • Солдаты неудачи / Tropic Thunder (2008) BDRip 720p by msltel | D, P, A | Режиссёрская версия торрент скачать бесплатно
  • Солдаты неудачи / Tropic Thunder (2008) BDRip by msltel | D, P, A | Режиссёрская версия торрент скачать бесплатно
  • Солдаты неудачи / Tropic Thunder (2008) HDRip от Scarabey | Pежиссерская версия скачать торрент бесплатно
  • Солдаты неудачи / Tropic Thunder / 2008 / ДБ, СТ / Blu-Ray CEE (1080p) скачать торрент бесплатно


    • Комментарии (0):

      Информация

      Информация

        Посетители, находящиеся в группе Гости, не могут оставлять комментарии в данной новости.

        ↓ Меню



        ↓ Опрос

        А Вы добавили сайт в закладки?
        Да
        Не


        Top 10 за неделю (Фильмы)