.
Авторизация | Регистрация
» » Старски и Хатч / Starsky and Hutch (2004) BDRip by msltel | D, P, A скачать через торрент бесплатно




    Старски и Хатч / Starsky and Hutch (2004) BDRip by msltel | D, P, A скачать через торрент бесплатно

    Опубликовал: Админ | Дата: 27-02-2015, 11:10 | Просмотров: 265



    Русское название: Старски и Хатч
    Русское название в мировом прокате: Starsky and Hutch
    Создали в: 2004
    Категория жанра: Комедия, криминал
    Снималось в: США, AR-TL, Dimension Films, Red Hour Films, Warner Bros. Pictures, Weed Road Pictures
    Главный режиссер: Тодд Филлипс
    Актеры: Бен Стиллер, Оуэн Уилсон, Снуп Догг, Фред Уильямсон, Винс Вон, Джульетт Льюис, Джейсон Бейтмен, Эми Смарт, Кармен Электра, Джордж Чунг, Крис Пенн, Бранд Родерик, Молли Симс, Мэтт Уолш, Джеффри Лоренцо, Шон Тиллман, Пэттон Освальт, Бригитт Романек, Пол Майкл Глейзер, Дэвид Соул, Дэн Финнерти, Джернард Буркс, Омар Дж. Дорси, Прамод Кумар

    Сюжет фильма: Детектив Дэвид Старски — самый опытный агент, работающий под прикрытием на улицах Бэй Сити в Калифорнии. Он маниакально предан своей работе, и ни одно преступление не останется безнаказанным, пока он на дежурстве… а дежурство у него не прекращается никогда. Детектив Кен Хатч Хатчинсон имеет собственные взгляды на образ идеального блюстителя порядка. Он всё схватывает на лету, сообразителен и принимает молниеносные решения. Но зачастую подобная спешка приводит к провалу операций. Обеспокоенный шеф местной полиции капитан Доуби, наконец, принимает соломоново решение: объединить двух лучших, но непутёвых полицейских в команду и выпустить их на патрулирование города. С первого же дня совместной службы им удаётся выйти на след крупной афёры по продаже наркотиков. Всё указывает на богатого бизнесмена Риса Фельдмана, но выдвинуть обвинение пока не получается. А Фельдман, тем временем, уже близок к совершению самой прибыльной сделки в истории наркобизнеса. Непохожий дуэт сыщиков должен будет продемонстрировать все свои лучшие качества, чтобы наказать криминал…

    Качество фильма: BDRip
    Размер скачиваемого торрента: 2.11 ГБ
    Время просмотра: 01:40:30

    Информация о видео: XviD, 1575 Кбит/с, 720x304
    Информация о звуке 1: русский, 48 kHz, AC3, 6 ch, 384 kbps avg, Дублированный, R5
    Информация о звуке 2: русский, 48 kHz, AC3, 6 ch, 384 kbps avg, Профессиональный многоголосый
    Информация о звуке 3: русский, 48 kHz, AC3, 2 ch, 192 kbps avg, Авторский, Андрей Гаврилов

    Внешние файлы
    Информация о звуке: английский, 48 kHz, AC3, 6 ch, 448 kbps avg, Оригинал
    Субтитры: русские
    Субтитры: английские

    Исходник: posodobl (Кинозал)

    Сравнение с исходником



    Награды
    Золотая малина, 2005 год
    Номинации (1):
    Худшая женская роль второго плана (Кармен Электра)

    Премия канала MTV, 2004 год
    Победитель (1):
    Лучший поцелуй (Кармен Электра, Эми Смарт, Оуэн Уилсон)

    Номинации (1):
    Лучшая экранная команда (Бен Стиллер, Оуэн Уилсон)
    MediaInfo
    Общее
    Полное имя : D:VideoStarski i Hatch.2004.BDRipStarski i Hatch.2004.BDRip.avi
    Формат : AVI
    Формат/Информация : Audio Video Interleave
    Размер файла : 1,79 Гбайт
    Продолжительность : 1 ч. 40 м.
    Общий поток : 2554 Кбит/сек
    Программа кодирования : VirtualDubMod 1.5.10.2 (build 2540/release)
    Библиотека кодирования : VirtualDubMod build 2540/release

    Видео
    Идентификатор : 0
    Формат : MPEG-4 Visual
    Профиль формата : Advanced Simple@L5
    Параметр BVOP формата : 1
    Параметр QPel формата : Нет
    Параметр GMC формата : Без точки перехода
    Параметр матрицы формата : Default (H.263)
    Режим смешивания : Сжатый битовый поток
    Идентификатор кодека : XVID
    Идентификатор кодека/Подсказка : XviD
    Продолжительность : 1 ч. 40 м.
    Битрейт : 1575 Кбит/сек
    Ширина : 720 пикселей
    Высота : 304 пикселя
    Соотношение сторон : 2,35:1
    Частота кадров : 23,976 кадра/сек
    Цветовое пространство : YUV
    Субдискретизация насыщенности : 4:2:0
    Битовая глубина : 8 бит
    Тип развёртки : Прогрессивная
    Метод сжатия : С потерями
    Бит/(Пиксели*Кадры) : 0.300
    Размер потока : 1,11 Гбайт (62%)
    Библиотека кодирования : XviD 1.2.1 (UTC 2008-12-04)

    Аудио #1
    Идентификатор : 1
    Формат : AC-3
    Формат/Информация : Audio Coding 3
    Расширение режима : CM (complete main)
    Параметр Endianness формата : Big
    Идентификатор кодека : 2000
    Продолжительность : 1 ч. 40 м.
    Вид битрейта : Постоянный
    Битрейт : 384 Кбит/сек
    Каналы : 6 каналов
    Расположение каналов : Front: L C R, Side: L R, LFE
    Частота : 48,0 КГц
    Битовая глубина : 16 бит
    Метод сжатия : С потерями
    Размер потока : 276 Мбайт (15%)
    Выравнивание : Разделение по промежуткам
    Продолжительность промежутка : 42 мс. (1,00 видеокадр)
    Время предзагрузки промежутка : 500 мс.

    Аудио #2
    Идентификатор : 2
    Формат : AC-3
    Формат/Информация : Audio Coding 3
    Расширение режима : CM (complete main)
    Параметр Endianness формата : Big
    Идентификатор кодека : 2000
    Продолжительность : 1 ч. 40 м.
    Вид битрейта : Постоянный
    Битрейт : 384 Кбит/сек
    Каналы : 6 каналов
    Расположение каналов : Front: L C R, Side: L R, LFE
    Частота : 48,0 КГц
    Битовая глубина : 16 бит
    Метод сжатия : С потерями
    Размер потока : 276 Мбайт (15%)
    Выравнивание : Разделение по промежуткам
    Продолжительность промежутка : 42 мс. (1,00 видеокадр)
    Время предзагрузки промежутка : 500 мс.

    Аудио #3
    Идентификатор : 3
    Формат : AC-3
    Формат/Информация : Audio Coding 3
    Расширение режима : CM (complete main)
    Параметр Endianness формата : Big
    Идентификатор кодека : 2000
    Продолжительность : 1 ч. 40 м.
    Вид битрейта : Постоянный
    Битрейт : 192 Кбит/сек
    Каналы : 2 канала
    Расположение каналов : Front: L R
    Частота : 48,0 КГц
    Битовая глубина : 16 бит
    Метод сжатия : С потерями
    Размер потока : 138 Мбайт (8%)
    Выравнивание : Разделение по промежуткам
    Продолжительность промежутка : 42 мс. (1,00 видеокадр)
    Время предзагрузки промежутка : 500 мс.

    Общее
    Полное имя : D:VideoStarski i Hatch.2004.BDRipStarski i Hatch.2004.eng.srt
    Формат : SubRip
    Размер файла : 123 Кбайт

    Текст
    Формат : SubRip
    Метод сжатия : Без потерь

    Общее
    Полное имя : D:VideoStarski i Hatch.2004.BDRipStarski i Hatch.2004.Original.eng.ac3
    Формат : AC-3
    Формат/Информация : Audio Coding 3
    Размер файла : 322 Мбайт
    Продолжительность : 1 ч. 40 м.
    Режим общего битрейта : Постоянный
    Общий поток : 448 Кбит/сек

    Аудио
    Формат : AC-3
    Формат/Информация : Audio Coding 3
    Расширение режима : CM (complete main)
    Параметр Endianness формата : Big
    Продолжительность : 1 ч. 40 м.
    Вид битрейта : Постоянный
    Битрейт : 448 Кбит/сек
    Каналы : 6 каналов
    Расположение каналов : Front: L C R, Side: L R, LFE
    Частота : 48,0 КГц
    Битовая глубина : 16 бит
    Метод сжатия : С потерями
    Размер потока : 322 Мбайт (100%)

    Общее
    Полное имя : D:VideoStarski i Hatch.2004.BDRipStarski i Hatch.2004.rus.srt
    Формат : SubRip
    Размер файла : 120 Кбайт

    Текст
    Формат : SubRip
    Метод сжатия : Без потерь
    Скриншоты для ознакомления


    Залил: msltel
    Размер скачиваемого торрента: 2.11 GB (2262773129 Bytes)

    Старски и Хатч / Starsky and Hutch (2004) BDRip by msltel | D, P, A скачать через торрент бесплатно
    загрузка...
    Рейтинг →
     (голосов: 1, оценка 5/5, голосовать можно 1 раз )

    Другие торренты по теме:



      Комментарии (0):

      Информация

      Информация

        Посетители, находящиеся в группе Гости, не могут оставлять комментарии в данной новости.

        ↓ Меню



        ↓ Опрос

        А Вы добавили сайт в закладки?
        Да
        Не


        Top 10 за неделю (Фильмы)