.
Авторизация | Регистрация
» » Задуманное / Meant to Be (2012) HDTVRip от MediaClub | P2 скачать через торрент бесплатно




    Задуманное / Meant to Be (2012) HDTVRip от MediaClub | P2 скачать через торрент бесплатно

    Опубликовал: Админ | Дата: 27-02-2015, 11:10 | Просмотров: 182



    Детально о кино
    Русское название: Задуманное
    Русское название в мировом прокате: Meant to Be
    Создали в: 2012
    Категория жанра: Драма
    Главный режиссер: Брэдли Дорси
    Актеры: Брэдли Дорси, Эрика Элениак, Эрин Соссамон, Делла Риз, Дин Кэйн, Майкл Гросс, Роберт Т. Баррет, Коллин Фой, Кейт Рене Глисон

    Сюжет фильма:
    Двадцатилетний писатель, выросший в приёмной семье, приезжает в город, где родился, чтобы найти свою родную мать и понять, почему она от него отказалась. Его мать замужем, воспитывает дочь и работает в социальной службе, когда же судьба сводит её с беременной девушкой-студенткой из неблагополучной семьи, для которой стоит выбор: жизнь матери-одиночки, либо карьера фотографа, женщина всеми силами уговаривает её сохранить малыша. И тогда писатель выясняет правду своего рождения…



    Снималось в: США
    Киностудия: Dorsey Productions, White Door Media
    Время просмотра: 01:31:18
    Перевод текста: Профессиональный двухголосый (НТВ+)

    Файл
    Кодек для видео: XviD
    Качество фильма: HDTVRip
    Информация о видео: 1870 Кбит/с, 720x400, 25.000 кадр/с
    Информация о звуке: Русский (АС3, 2 ch, 256 Кбит/с)

    Семпл

    Скриншоты для ознакомления

    MI
    Общее
    Полное имя : Zadumannoe.2012.HDTVRip.MediaClub.avi
    Формат : AVI
    Формат/Информация : Audio Video Interleave
    Размер файла : 1,36 Гбайт
    Продолжительность : 1 ч. 31 м.
    Общий поток : 2135 Кбит/сек
    Название фильма : MediaClub
    Программа кодирования : VirtualDubMod 1.5.10.2 (build 2540/release)
    Библиотека кодирования : VirtualDubMod build 2540/release

    Видео
    Идентификатор : 0
    Формат : MPEG-4 Visual
    Профиль формата : Advanced Simple@L5
    Параметр BVOP формата : 2
    Параметр QPel формата : Нет
    Параметр GMC формата : Без точки перехода
    Параметр матрицы формата : Default (MPEG)
    Идентификатор кодека : XVID
    Идентификатор кодека/Подсказка : XviD
    Продолжительность : 1 ч. 31 м.
    Битрейт : 1870 Кбит/сек
    Ширина : 720 пикселей
    Высота : 400 пикселей
    Соотношение сторон : 16:9
    Частота кадров : 25,000 кадров/сек
    Цветовое пространство : YUV
    Субдискретизация насыщенности : 4:2:0
    Битовая глубина : 8 бит
    Тип развёртки : Прогрессивная
    Метод сжатия : С потерями
    Бит/(Пиксели*Кадры) : 0.260
    Размер потока : 1,19 Гбайт (88%)
    Библиотека кодирования : XviD 65

    Аудио
    Идентификатор : 1
    Формат : AC-3
    Формат/Информация : Audio Coding 3
    Расширение режима : CM (complete main)
    Параметр Endianness формата : Big
    Идентификатор кодека : 2000
    Продолжительность : 1 ч. 31 м.
    Вид битрейта : Постоянный
    Битрейт : 256 Кбит/сек
    Каналы : 2 канала
    Расположение каналов : Front: L R
    Частота : 48,0 КГц
    Битовая глубина : 16 бит
    Метод сжатия : С потерями
    Размер потока : 167 Мбайт (12%)
    Выравнивание : Разделение по промежуткам
    Продолжительность промежутка : 40 мс. (1,00 видеокадр)
    Время предзагрузки промежутка : 500 мс.


    Релиз подготовил:
    Залил: poja
    Размер скачиваемого торрента: 1.36 GB (1462411264 Bytes)

    Задуманное / Meant to Be (2012) HDTVRip от MediaClub | P2 скачать через торрент бесплатно
    загрузка...
    Рейтинг →
     (голосов: 1, оценка 3/5, голосовать можно 1 раз )

    Другие торренты по теме:

  • Задуманное / Meant to Be (2012) SATRip от ClubTorrent | P2 торрент скачать бесплатно
  • Задуманное / Meant to Be (2012) HDTVRip-AVC от MediaClub | P2 торрент скачать бесплатно


    • Комментарии (0):

      Информация

      Информация

        Посетители, находящиеся в группе Гости, не могут оставлять комментарии в данной новости.

        ↓ Меню



        ↓ Опрос

        А Вы добавили сайт в закладки?
        Да
        Не


        Top 10 за неделю (Фильмы)