.
Авторизация | Регистрация
» » Аполлон 13 / Apollo 13 (1995) HD-DVDRip от New-Team | D скачать через торрент бесплатно




    Аполлон 13 / Apollo 13 (1995) HD-DVDRip от New-Team | D скачать через торрент бесплатно

    Опубликовал: Админ | Дата: 27-02-2015, 11:10 | Просмотров: 202


    Снималось в: США
    Создали в: Imagine Entertainment, Universal Pictures

    Категория жанра: драма, приключения, история
    Создали в: 1995
    Время просмотра: 02:19:50

    Перевод текста: Профессиональный (полное дублирование)
    Оригинальная аудиодорожка: английский
    Субтитры подготовлены: русский, английский, русский (форсированные)

    Главный режиссер: Рон Ховард / Ron Howard

    Актеры:
    Том Хэнкс, Билл Пэкстон, Кевин Бейкон, Гэри Синиз, Эд Харрис, Кэтлин Куинлен, Мэри Кейт Шеллхардт, Эмили Энн Ллойд, Мико Хьюз, Макс Эллиотт Слэйд...

    Сюжет:
    Фильм о неудачной лунной миссии Аполлон-13 — одном из самых драматических моментов освоения космоса. В 1970 Аполлон-13 должен был стать третьим космическим кораблём, который доставил бы астронавтов на Луну. Однако уже на подлёте к цели на корабле произошла серьёзная авария, которая не только поставила крест на высадке, но и создала угрозу жизни экипажа…




    Исходник: HD-DVD
    Тип релиза: HD-DVDRip
    Контейнер: AVI

    Информация о видео: 720x304 (2.35:1), 23,976 fps, XviD ~ 1098 kbps avg, 0.209 bit/pixel
    Информация о звуке: 48 kHz, Dolby Digital AC3 2.0, 192 kbps DUB
    Информация о звуке: 48 kHz, Dolby Digital AC3 2.0, 192 kbps Английский
    Субтитры: SoftSub (srt)

    Раздача от:
    MediaInfo

    Общее
    Полное имя : Apollo.13.1995.HDDVDRip_New-team_by_AVP_Studio.avi
    Формат : AVI
    Формат/Информация : Audio Video Interleave
    Размер файла : 1,46 Гбайт
    Продолжительность : 2 ч. 19 м.
    Общий поток : 1495 Кбит/сек
    Программа кодирования : VirtualDubModRus 1.5.10.2 (build 2542/release)
    Библиотека кодирования : VirtualDubMod build 2542/release

    Видео
    Идентификатор : 0
    Формат : MPEG-4 Visual
    Профиль формата : Advanced Simple@L5
    Параметр BVOP формата : 1
    Параметр QPel формата : Нет
    Параметр GMC формата : Без точки перехода
    Параметр матрицы формата : Выборочная
    Идентификатор кодека : XVID
    Идентификатор кодека/Подсказка : XviD
    Продолжительность : 2 ч. 19 м.
    Битрейт : 1098 Кбит/сек
    Ширина : 720 пикселей
    Высота : 304 пикселя
    Соотношение сторон : 2,35:1
    Частота кадров : 23,976 кадра/сек
    Цветовое пространство : YUV
    Субдискретизация насыщенности : 4:2:0
    Битовая глубина : 8 бит
    Тип развёртки : Прогрессивная
    Метод сжатия : С потерями
    Бит/(Пиксели*Кадры) : 0.209
    Размер потока : 1,07 Гбайт (73%)
    Библиотека кодирования : XviD 73

    Аудио #1
    Идентификатор : 1
    Формат : AC-3
    Формат/Информация : Audio Coding 3
    Расширение режима : CM (complete main)
    Параметр Endianness формата : Big
    Идентификатор кодека : 2000
    Продолжительность : 2 ч. 19 м.
    Вид битрейта : Постоянный
    Битрейт : 192 Кбит/сек
    Каналы : 2 канала
    Расположение каналов : Front: L R
    Частота : 48,0 КГц
    Битовая глубина : 16 бит
    Метод сжатия : С потерями
    Размер потока : 192 Мбайт (13%)
    Выравнивание : Разделение по промежуткам
    Продолжительность промежутка : 42 мс. (1,00 видеокадр)
    Время предзагрузки промежутка : 500 мс.

    Аудио #2
    Идентификатор : 2
    Формат : AC-3
    Формат/Информация : Audio Coding 3
    Профиль формата : Dolby Digital
    Расширение режима : CM (complete main)
    Параметр Endianness формата : Big
    Идентификатор кодека : 2000
    Продолжительность : 2 ч. 19 м.
    Вид битрейта : Постоянный
    Битрейт : 192 Кбит/сек
    Каналы : 2 канала
    Расположение каналов : Front: L R
    Частота : 48,0 КГц
    Битовая глубина : 16 бит
    Метод сжатия : С потерями
    Размер потока : 192 Мбайт (13%)
    Выравнивание : Разделение по промежуткам
    Продолжительность промежутка : 42 мс. (1,00 видеокадр)
    Время предзагрузки промежутка : 500 мс

    Скриншоты для ознакомления



    Залил: AVPStudio
    Размер скачиваемого торрента: 1.46 GB (1568769957 Bytes)

    Аполлон 13 / Apollo 13 (1995) HD-DVDRip от New-Team | D скачать через торрент бесплатно
    загрузка...
    Рейтинг →
     (голосов: 1, оценка 4/5, голосовать можно 1 раз )

    Другие торренты по теме:

  • Аполлон 18 / Apollo 18 (2011) BDRip-AVC торрент скачать бесплатно
  • OST - Аполлон 13 / Apollo 13 (1995) MP3 торрент скачать бесплатно
  • Аполлон 13. Хьюстон у нас проблемы / Apollo 13 - Houston, we`ve got a problem (1972) WEBRip торрент скачать бесплатно
  • Аполлон 13 / Apollo 13 (1995) HDRip от Scarabey | D торрент скачать бесплатно
  • Аполлон 11 / Apollo 11 (1996) SATRip-AVC скачать через торрент бесплатно
  • Аполлон 13 / Apollo 13 (1995) HD-DVDRip-AVC от New-Team | D скачать через торрент бесплатно
  • Аполлон 13 / Apollo 13 (1995) BDRip 1080p от NNNB скачать через торрент бесплатно
  • Аполлон 13 / Apollo 13 (1995) BDRip 720р от ExKinoRay | REMASTERED | D, P, A скачать торрент бесплатно


    • Комментарии (0):

      Информация

      Информация

        Посетители, находящиеся в группе Гости, не могут оставлять комментарии в данной новости.

        ↓ Меню



        ↓ Опрос

        А Вы добавили сайт в закладки?
        Да
        Не


        Top 10 за неделю (Фильмы)