.
Авторизация | Регистрация
» » Людоед / Ravenous (1999) BDRemux 1080p от MediaClub | P, A торрент скачать бесплатно




    Людоед / Ravenous (1999) BDRemux 1080p от MediaClub | P, A торрент скачать бесплатно

    Опубликовал: Админ | Дата: 27-02-2015, 11:10 | Просмотров: 253



    Детально о кино
    Русское название: Людоед
    Русское название в мировом прокате: Ravenous
    Создали в: 1999
    Категория жанра: Триллер, мистика, ужасы
    Главный режиссер: Антония Бёрд
    Актеры: Гай Пирс, Роберт Карлайл, Джеффри Джонс, Нил МакДоноф, Джон Спенсер, Стивен Спинелла, Дэвид Аркетт, Джереми Дэвис, Шила Таузи, Билл Прочтрап, Джозеф Раннинг Фокс

    Сюжет: Действие фильма происходит в 1847 году, в период войны Америки с Мексикой. Капитана Джона Бойда чествуют и награждают различными медалями, однако он не рад этим обстоятельствам. Причиной его чествования стал захват ставки противника в одиночку, но только он один знает все обстоятельства столь смелого поступка — он просто струсил, бросил оружие и притворился мёртвым. Так он пролежал длительное время среди мёртвых товарищей, а впоследствии в состоянии аффекта поубивал всех неприятелей. Однако продвижения по службе Джон не получил, вместо этого его направляют в одинокий форт в горах Калифорнии. Через некоторое время в форт приходит оборванный и изголодавшийся мужчина по имени Калхун. Из его истории становится ясно, что он был членом каравана, который вёл проводник. Проводник заблудился и люди, в связи с наступившей зимой, поселились в пещере. Однако запасов еды было мало и в тот момент, когда они кончились люди начали поедать друг друга. Калхуну удалось бежать.



    Снималось в: США, Великобритания, Чехия / 20th Century Fox
    Время просмотра: 01:40:55
    Перевод текста: Профессиональный многоголосый, авторский

    Файл
    Качество фильма: BDRemux 1080p
    Информация о видео: MPEG-4 AVC, 26394 Кбит/с, 1920x1080, 23.976 кадр/с
    Информация о звуке #1: Русский (AC3, 6 ch, 448 Кбит/с) / Профессиональный многоголосый
    Информация о звуке #2: Русский (AC3, 6 ch, 448 Кбит/с) / Авторский одноголосый (Пучков-Гоблин)
    Информация о звуке #3: Английский (DTS-HD MA, 6 ch, 4319 Кбит/с)
    Субтитры: Русские, английские

    Скриншоты для ознакомления


    О релизе
    За блюр спасибо Lazers
    MI
    Общее
    Уникальный идентификатор : 175553414536960548101252550900630425256 (0x84125B9819AA9E94A0666E2558BC0EA8)
    Полное имя : D:Mои раздачиLudoed.1999.BDRemux.1080p-MediaClub.mkv
    Формат : Matroska
    Версия формата : Version 4 / Version 2
    Размер файла : 22,3 Гбайт
    Продолжительность : 1 ч. 40 м.
    Режим общего битрейта : Переменный
    Общий поток : 31,6 Мбит/сек
    Название фильма : -=MediaClub-kaspr=-
    Дата кодирования : UTC 2014-05-29 14:01:26
    Программа кодирования : mkvmerge v6.9.1 (;Blue Panther;) 64bit built on Apr 18 2014 18:23:38
    Библиотека кодирования : libebml v1.3.0 + libmatroska v1.4.1

    Видео
    Идентификатор : 1
    Формат : AVC
    Формат/Информация : Advanced Video Codec
    Профиль формата : High@L4.1
    Параметр CABAC формата : Да
    Параметр ReFrames формата : 3 кадра
    Параметр GOP формата : M=3, N=12
    Идентификатор кодека : V_MPEG4/ISO/AVC
    Продолжительность : 1 ч. 40 м.
    Вид битрейта : Переменный
    Максимальный битрейт : 34,5 Мбит/сек
    Ширина : 1920 пикселей
    Высота : 1080 пикселей
    Соотношение сторон : 16:9
    Режим частоты кадров : Постоянный
    Частота кадров : 23,976 кадра/сек
    Стандарт вещания : NTSC
    Цветовое пространство : YUV
    Субдискретизация насыщенности : 4:2:0
    Битовая глубина : 8 бит
    Тип развёртки : Прогрессивная
    Заголовок : -=MediaClub-kaspr=-
    Default : Да
    Forced : Да
    Основные цвета : BT.709
    Характеристики трансфера : BT.709
    Коэффициенты матрицы : BT.709

    Аудио #1
    Идентификатор : 2
    Формат : AC-3
    Формат/Информация : Audio Coding 3
    Расширение режима : CM (complete main)
    Параметр Endianness формата : Big
    Идентификатор кодека : A_AC3
    Продолжительность : 1 ч. 40 м.
    Вид битрейта : Постоянный
    Битрейт : 448 Кбит/сек
    Каналы : 6 каналов
    Расположение каналов : Front: L C R, Side: L R, LFE
    Частота : 48,0 КГц
    Битовая глубина : 16 бит
    Метод сжатия : С потерями
    Размер потока : 323 Мбайт (1%)
    Заголовок : MVO
    Язык : Russian
    Default : Да
    Forced : Да

    Аудио #2
    Идентификатор : 3
    Формат : AC-3
    Формат/Информация : Audio Coding 3
    Расширение режима : CM (complete main)
    Параметр Endianness формата : Big
    Идентификатор кодека : A_AC3
    Продолжительность : 1 ч. 40 м.
    Вид битрейта : Постоянный
    Битрейт : 448 Кбит/сек
    Каналы : 6 каналов
    Расположение каналов : Front: L C R, Side: L R, LFE
    Частота : 48,0 КГц
    Битовая глубина : 16 бит
    Метод сжатия : С потерями
    Размер потока : 323 Мбайт (1%)
    Заголовок : Пучков
    Язык : Russian
    Default : Нет
    Forced : Нет

    Аудио #3
    Идентификатор : 4
    Формат : DTS
    Формат/Информация : Digital Theater Systems
    Профиль формата : MA / Core
    Режим : 16
    Параметр Endianness формата : Big
    Идентификатор кодека : A_DTS
    Продолжительность : 1 ч. 40 м.
    Вид битрейта : Переменный
    Битрейт : Неизвестно / 1509 Кбит/сек
    Каналы : 6 каналов
    Расположение каналов : Front: L C R, Side: L R, LFE
    Частота : 48,0 КГц
    Битовая глубина : 24 бит
    Метод сжатия : Без потерь / Lossy
    Язык : English
    Default : Нет
    Forced : Нет

    Текст #1
    Идентификатор : 5
    Формат : UTF-8
    Идентификатор кодека : S_TEXT/UTF8
    Идентификатор кодека/Информация : UTF-8 Plain Text
    Язык : Russian
    Default : Нет
    Forced : Нет

    Текст #2
    Идентификатор : 6
    Формат : UTF-8
    Идентификатор кодека : S_TEXT/UTF8
    Идентификатор кодека/Информация : UTF-8 Plain Text
    Язык : English
    Default : Нет
    Forced : Нет

    Меню
    00:00:00.000 : en:Chapter 01
    00:09:15.554 : en:Chapter 02
    00:15:28.552 : en:Chapter 03
    00:22:47.574 : en:Chapter 04
    00:31:13.621 : en:Chapter 05
    00:39:54.892 : en:Chapter 06
    00:46:21.779 : en:Chapter 07
    00:52:21.221 : en:Chapter 08
    01:00:48.186 : en:Chapter 09
    01:09:50.019 : en:Chapter 10
    01:16:46.143 : en:Chapter 11
    01:22:22.854 : en:Chapter 12
    01:37:03.818 : en:Chapter 13


    Релиз: |
    Залил: kaspr
    Размер скачиваемого торрента: 22.28 GB (23923292323 Bytes)

    Людоед / Ravenous (1999) BDRemux 1080p от MediaClub | P, A торрент скачать бесплатно
    загрузка...
    Рейтинг →
     (голосов: 1, оценка 5/5, голосовать можно 1 раз )

    Другие торренты по теме:

  • Людоед / Ravenous (1999) WEB-DLRip от Rulya74 | P, A торрент скачать бесплатно
  • Обед людоеда / Cannibal Diner (2012) HDRip | L1 торрент скачать бесплатно
  • Обед людоеда / Cannibal Diner (2012) HDRip | L1 торрент скачать бесплатно
  • Людоед / Ravenous (1999) WEB-DL 720p | P, A скачать через торрент бесплатно
  • Людоед / Ravenous (1999) BDRip 1080p от MediaClub | P, A торрент скачать бесплатно
  • Рем Дигга - Людоед (2014) MP3 от AGR - Generalfilm скачать через торрент бесплатно
  • Людоед / Ravenous (1999) BDRip 720p | P, A скачать торрент бесплатно
  • Людоед / Ravenous (1999) HDRip от Scarabey | Р скачать торрент бесплатно


    • Комментарии (0):

      Информация

      Информация

        Посетители, находящиеся в группе Гости, не могут оставлять комментарии в данной новости.

        ↓ Меню



        ↓ Опрос

        А Вы добавили сайт в закладки?
        Да
        Не


        Top 10 за неделю (Фильмы)