.
Авторизация | Регистрация
Хочешь лучшие торренты? Добавь свой email!
Добавить
» » Ограбление на Бейкер-Стрит / The Bank Job (2008) BDRip by msltel | D, A скачать через торрент бесплатно




    Ограбление на Бейкер-Стрит / The Bank Job (2008) BDRip by msltel | D, A скачать через торрент бесплатно

    Опубликовал: Админ | Дата: 27-02-2015, 11:10 | Просмотров: 189



    Русское название: Ограбление на Бейкер-Стрит
    Русское название в мировом прокате: The Bank Job
    Создали в: 2008
    Категория жанра: Триллер, драма, криминал
    Снималось в: Великобритания, США, Atlas Entertainment, Mosaic Media Group, Omnilab Media, Relativity Media, Skyline (Baker St)
    Главный режиссер: Роджер Дональдсон
    Актеры: Джейсон Стэйтем, Саффрон Берроуз, Стивен Кэмпбелл Мур, Дэниэл Мейс, Джеймс Фолкнер, Алки Дэвид, Майкл Джибсон, Джорджия Тейлор, Ричард Линтерн, Питер Боулз, Алистэр Петри, Хэтти Морахэн, Джулиан Льюис Джонс, Эндрю Брук, Руперт Фрейзер, Кристофер Оуэн, Кили Хоуз, Талор Самуэйс, Кэйси Бэйтрип, Дон Галлахер, Крэйг Фэйрбрасс, Джерард Хоран, Роберт Уайтлок, Дэвид Суше, Питер Де Джерси, Йохан Майерс, Колин Сэлмон, Шэрон Мофан, Рэй Николас, Лес Кенни-Грин, Джэми Кенна, Энгус Райт, Марк Феникс, Джеймс Холл, Камерон Андерсон, Джулиан Фёрт, Норма Д

    Сюжет фильма: Фильм основан на реальных событиях, происходивших в Великобритании в 1971 году. После 35 лет забвения мы наконец узнаём об одном из самых легендарных ограблений банка в истории Великобритании, когда не было произведено ни одного ареста и не было найдено ни малейшего следа похищенных денег. Налёт на банк на Бейкер Стрит был инициирован высокопоставленными официальными лицами, пытающимися добраться до заветной банковской ячейки, в которой хозяйка одного из известнейших борделей Лондона хранила секретную информацию. Теперь запрет на разглашение информации об этом ограблении снят британским правительством, и перед нами открывается красочная, лихо закрученная, история, полная тайн, сюрпризов и неожиданных поворотов.

    Качество фильма: BDRip
    Информация о видео: XviD, 1575 Кбит/с, 720x304
    Информация о звуке: Русский, английский (АС3, 6 ch, 448 Кбит/с)
    Размер скачиваемого торрента: 2.65 ГБ
    Время просмотра: 01:52:02
    Перевод текста: Дублированный, авторский (1.Андрей Гаврилов, 2.Юрий Немахов)
    Субтитры: Русские

    Исходник: morov (HDtracker)

    Сравнение с исходником



    MediaInfo
    Общее
    Полное имя : D:VideoOgrablenie na Bejker-Strit.2008.BDRipOgrablenie na Bejker-Strit.2008.BDRip.avi
    Формат : AVI
    Формат/Информация : Audio Video Interleave
    Профиль формата : OpenDML
    Размер файла : 2,30 Гбайт
    Продолжительность : 1 ч. 52 м.
    Общий поток : 2942 Кбит/сек
    Программа кодирования : VirtualDubMod 1.5.10.2 (build 2540/release)
    Библиотека кодирования : VirtualDubMod build 2540/release

    Видео
    Идентификатор : 0
    Формат : MPEG-4 Visual
    Профиль формата : Advanced Simple@L5
    Параметр BVOP формата : 1
    Параметр QPel формата : Нет
    Параметр GMC формата : Без точки перехода
    Параметр матрицы формата : Default (H.263)
    Режим смешивания : Сжатый битовый поток
    Идентификатор кодека : XVID
    Идентификатор кодека/Подсказка : XviD
    Продолжительность : 1 ч. 52 м.
    Битрейт : 1575 Кбит/сек
    Ширина : 720 пикселей
    Высота : 304 пикселя
    Соотношение сторон : 2,35:1
    Частота кадров : 23,976 кадра/сек
    Цветовое пространство : YUV
    Субдискретизация насыщенности : 4:2:0
    Битовая глубина : 8 бит
    Тип развёртки : Прогрессивная
    Метод сжатия : С потерями
    Бит/(Пиксели*Кадры) : 0.300
    Размер потока : 1,23 Гбайт (54%)
    Библиотека кодирования : XviD 1.2.1 (UTC 2008-12-04)

    Аудио #1
    Идентификатор : 1
    Формат : AC-3
    Формат/Информация : Audio Coding 3
    Расширение режима : CM (complete main)
    Параметр Endianness формата : Big
    Идентификатор кодека : 2000
    Продолжительность : 1 ч. 52 м.
    Вид битрейта : Постоянный
    Битрейт : 448 Кбит/сек
    Каналы : 6 каналов
    Расположение каналов : Front: L C R, Side: L R, LFE
    Частота : 48,0 КГц
    Битовая глубина : 16 бит
    Метод сжатия : С потерями
    Размер потока : 359 Мбайт (15%)
    Выравнивание : Разделение по промежуткам
    Продолжительность промежутка : 42 мс. (1,00 видеокадр)
    Время предзагрузки промежутка : 500 мс.

    Аудио #2
    Идентификатор : 2
    Формат : AC-3
    Формат/Информация : Audio Coding 3
    Расширение режима : CM (complete main)
    Параметр Endianness формата : Big
    Идентификатор кодека : 2000
    Продолжительность : 1 ч. 52 м.
    Вид битрейта : Постоянный
    Битрейт : 448 Кбит/сек
    Каналы : 6 каналов
    Расположение каналов : Front: L C R, Side: L R, LFE
    Частота : 48,0 КГц
    Битовая глубина : 16 бит
    Метод сжатия : С потерями
    Размер потока : 359 Мбайт (15%)
    Выравнивание : Разделение по промежуткам
    Продолжительность промежутка : 42 мс. (1,00 видеокадр)
    Время предзагрузки промежутка : 500 мс.

    Аудио #3
    Идентификатор : 3
    Формат : AC-3
    Формат/Информация : Audio Coding 3
    Расширение режима : CM (complete main)
    Параметр Endianness формата : Big
    Идентификатор кодека : 2000
    Продолжительность : 1 ч. 52 м.
    Вид битрейта : Постоянный
    Битрейт : 448 Кбит/сек
    Каналы : 6 каналов
    Расположение каналов : Front: L C R, Side: L R, LFE
    Частота : 48,0 КГц
    Битовая глубина : 16 бит
    Метод сжатия : С потерями
    Размер потока : 359 Мбайт (15%)
    Выравнивание : Разделение по промежуткам
    Продолжительность промежутка : 42 мс. (1,00 видеокадр)
    Время предзагрузки промежутка : 500 мс.

    Общее
    Полное имя : D:VideoOgrablenie na Bejker-Strit.2008.BDRipOgrablenie na Bejker-Strit.2008.Original.eng.ac3
    Формат : AC-3
    Формат/Информация : Audio Coding 3
    Размер файла : 359 Мбайт
    Продолжительность : 1 ч. 52 м.
    Режим общего битрейта : Постоянный
    Общий поток : 448 Кбит/сек

    Аудио
    Формат : AC-3
    Формат/Информация : Audio Coding 3
    Расширение режима : CM (complete main)
    Параметр Endianness формата : Big
    Продолжительность : 1 ч. 52 м.
    Вид битрейта : Постоянный
    Битрейт : 448 Кбит/сек
    Каналы : 6 каналов
    Расположение каналов : Front: L C R, Side: L R, LFE
    Частота : 48,0 КГц
    Битовая глубина : 16 бит
    Метод сжатия : С потерями
    Размер потока : 359 Мбайт (100%)

    Общее
    Полное имя : D:VideoOgrablenie na Bejker-Strit.2008.BDRipOgrablenie na Bejker-Strit.2008.rus.srt
    Формат : SubRip
    Размер файла : 104 Кбайт

    Текст
    Формат : SubRip
    Метод сжатия : Без потерь
    Скриншоты для ознакомления


    Залил: msltel
    Размер скачиваемого торрента: 2.65 GB (2848524558 Bytes)

    Ограбление на Бейкер-Стрит / The Bank Job (2008) BDRip by msltel | D, A скачать через торрент бесплатно
    загрузка...
    Рейтинг →
     (голосов: 1, оценка 4/5, голосовать можно 1 раз )

    Другие торренты по теме:

  • Ограбление на Бейкер-Стрит / The Bank Job (2008) HDRip от iFilmsGroup
  • Ограбление на Бейкер-Стрит / The Bank Job (2008) BDRip-AVC | A
  • Ограбление на Бейкер-Стрит / The Bank Job (2008) BDRip-AVC от Rulya74 скачать через торрент бесплатно
  • Ограбление на Бейкер-Стрит / The Bank Job (2008) BDRip 1080p от denis 100 | Open Matte скачать через торрент бесплатно
  • Ограбление на Бейкер-Стрит / The Bank Job (2008) BDRip 720p by msltel | D, A скачать через торрент бесплатно
  • Ограбление на Бейкер-Стрит / The Bank Job (2008) BDRip 1080p by msltel | D, A скачать через торрент бесплатно
  • Ограбление на Бейкер-Стрит / The Bank Job (2008) BDRip 720p от Leonardo and Scarabey
  • Ограбление на Бейкер-Стрит / The Bank Job (2008) HDRip от Scarabey | D


    • Комментарии (0):

      Информация

      Информация

        Посетители, находящиеся в группе Гости, не могут оставлять комментарии в данной новости.

        ↓ Меню



        ↓ Опрос

        А Вы добавили сайт в закладки?
        Да
        Не


        Top 10 за месяц (Фильмы)