.
Авторизация | Регистрация
» » Анатомия любви / Endless Love (2014) BDRip 1080p | Лицензия скачать через торрент бесплатно




    Анатомия любви / Endless Love (2014) BDRip 1080p | Лицензия скачать через торрент бесплатно

    Опубликовал: Админ | Дата: 27-02-2015, 11:10 | Просмотров: 221



    Детально о кино
    Русское название: Анатомия любви
    Русское название в мировом прокате: Endless Love
    Создали в: 2014
    Категория жанра: драма, мелодрама
    Главный режиссер: Шана Фест
    Актеры: Алекс Петтифер, Габриэлла Уайлд, Брюс Гринвуд, Джоэли Ричардсон, Роберт Патрик, Риз Уэйкфилд, Дайо Окенайи, Эмма Ригби, Анна Энгер, Фаббианн Терез

    Сюжет фильма: Он — далеко не ангел, высокий дерзкий парень, помешанный на тачках. Она — примерная ученица, белокурая красотка из богатой семьи. Их любовь под запретом, а потому вдвойне желанна. Страсть сжигает их дотла и бросает в бездну.



    Снималось в: США
    Время просмотра: 01:44:38
    Перевод текста: Профессиональный (полное дублирование) - Лицензия

    Файл
    Качество фильма: BDRip 1080p
    Тип видео: MKV
    Информация о видео: MPEG4/AVC, 1920х816 (2.35:1), 13.4 Мбит/сек, 23.976 кадра/сек
    Информация о звуке 1: AC3, 6 каналов, 448 Кбит/сек | Лицензия | русский
    Информация о звуке 2: DTS, 6 каналов, 768 Кбит/сек | Лицензия | русский
    Информация о звуке 3: AC3, 6 каналов, 640 Кбит/сек | Английский
    Субтитры: Русские (форс., полные), украинские, английские (полные, SDH)
    Навигация по главам: Есть

    MediaInfo:
    Общее
    Уникальный идентификатор : 202803210034605356600909038686298331727 (0x98927A3D981130109D41FCEB25C65A4F)
    Полное имя : Endless Love. (2014) BDRip 1080p.mkv
    Формат : Matroska
    Версия формата : Version 2
    Размер файла : 11,1 Гбайт
    Продолжительность : 1 ч. 44 м.
    Общий поток : 15,2 Мбит/сек
    Название фильма : Endless Love. 2014
    Дата кодирования : UTC 2014-06-01 12:47:56
    Программа кодирования : mkvmerge v5.8.0 (;No Sleep / Pillow;) built on Sep 2 2012 15:37:04
    Библиотека кодирования : libebml v1.2.3 + libmatroska v1.3.0

    Видео
    Идентификатор : 1
    Формат : AVC
    Формат/Информация : Advanced Video Codec
    Профиль формата : High@L4.1
    Параметр CABAC формата : Да
    Параметр ReFrames формата : 5 кадров
    Идентификатор кодека : V_MPEG4/ISO/AVC
    Продолжительность : 1 ч. 44 м.
    Битрейт : 13,4 Мбит/сек
    Ширина : 1920 пикселей
    Высота : 816 пикселей
    Соотношение сторон : 2,35:1
    Режим частоты кадров : Постоянный
    Частота кадров : 23,976 кадра/сек
    Цветовое пространство : YUV
    Субдискретизация насыщенности : 4:2:0
    Битовая глубина : 8 бит
    Тип развёртки : Прогрессивная
    Бит/(Пиксели*Кадры) : 0.356
    Размер потока : 9,56 Гбайт (86%)
    Заголовок : CHD
    Библиотека кодирования : x264 core 138 r2356 a1d3d17
    Настройки программы : cabac=1 / ref=5 / deblock=1:-3:-3 / analyse=0x3:0x113 / me=umh / subme=10 / psy=1 / psy_rd=1.00:0.05 / mixed_ref=1 / me_range=32 / chroma_me=1 / trellis=2 / 8x8dct=1 / cqm=0 / deadzone=21,11 / fast_pskip=0 / chroma_qp_offset=-2 / threads=18 / lookahead_threads=1 / sliced_threads=0 / nr=0 / decimate=1 / interlaced=0 / bluray_compat=0 / constrained_intra=0 / bframes=6 / b_pyramid=2 / b_adapt=2 / b_bias=0 / direct=3 / weightb=1 / open_gop=0 / weightp=2 / keyint=250 / keyint_min=23 / scenecut=40 / intra_refresh=0 / rc=2pass / mbtree=0 / bitrate=13386 / ratetol=1.0 / qcomp=0.70 / qpmin=0 / qpmax=69 / qpstep=4 / cplxblur=20.0 / qblur=0.5 / ip_ratio=1.40 / pb_ratio=1.30 / aq=2:0.90
    Язык : English
    Default : Да
    Forced : Нет

    Аудио #1
    Идентификатор : 2
    Формат : AC-3
    Формат/Информация : Audio Coding 3
    Расширение режима : CM (complete main)
    Параметр Endianness формата : Big
    Идентификатор кодека : A_AC3
    Продолжительность : 1 ч. 44 м.
    Вид битрейта : Постоянный
    Битрейт : 448 Кбит/сек
    Каналы : 6 каналов
    Расположение каналов : Front: L C R, Side: L R, LFE
    Частота : 48,0 КГц
    Битовая глубина : 16 бит
    Метод сжатия : С потерями
    Размер потока : 335 Мбайт (3%)
    Заголовок : Dub | Лицензия
    Язык : Russian
    Default : Да
    Forced : Нет

    Аудио #2
    Идентификатор : 3
    Формат : DTS
    Формат/Информация : Digital Theater Systems
    Режим : 16
    Параметр Endianness формата : Big
    Идентификатор кодека : A_DTS
    Продолжительность : 1 ч. 44 м.
    Вид битрейта : Постоянный
    Битрейт : 768 Кбит/сек
    Каналы : 6 каналов
    Расположение каналов : Front: L C R, Side: L R, LFE
    Частота : 48,0 КГц
    Битовая глубина : 24 бит
    Метод сжатия : С потерями
    Размер потока : 575 Мбайт (5%)
    Заголовок : Dub | Лицензия
    Язык : Russian
    Default : Нет
    Forced : Нет

    Аудио #3
    Идентификатор : 4
    Формат : AC-3
    Формат/Информация : Audio Coding 3
    Расширение режима : CM (complete main)
    Параметр Endianness формата : Big
    Идентификатор кодека : A_AC3
    Продолжительность : 1 ч. 44 м.
    Вид битрейта : Постоянный
    Битрейт : 640 Кбит/сек
    Каналы : 6 каналов
    Расположение каналов : Front: L C R, Side: L R, LFE
    Частота : 48,0 КГц
    Битовая глубина : 16 бит
    Метод сжатия : С потерями
    Размер потока : 479 Мбайт (4%)
    Заголовок : Eng
    Язык : English
    Default : Нет
    Forced : Нет

    Текст #1
    Идентификатор : 5
    Формат : UTF-8
    Идентификатор кодека : S_TEXT/UTF8
    Идентификатор кодека/Информация : UTF-8 Plain Text
    Заголовок : Forced
    Язык : Russian
    Default : Да
    Forced : Нет

    Текст #2
    Идентификатор : 6
    Формат : UTF-8
    Идентификатор кодека : S_TEXT/UTF8
    Идентификатор кодека/Информация : UTF-8 Plain Text
    Заголовок : Full
    Язык : Russian
    Default : Нет
    Forced : Нет

    Текст #3
    Идентификатор : 7
    Формат : UTF-8
    Идентификатор кодека : S_TEXT/UTF8
    Идентификатор кодека/Информация : UTF-8 Plain Text
    Заголовок : Full
    Язык : Ukrainian
    Default : Нет
    Forced : Нет

    Текст #4
    Идентификатор : 8
    Формат : UTF-8
    Идентификатор кодека : S_TEXT/UTF8
    Идентификатор кодека/Информация : UTF-8 Plain Text
    Заголовок : Full
    Язык : English
    Default : Нет
    Forced : Нет

    Текст #5
    Идентификатор : 9
    Формат : UTF-8
    Идентификатор кодека : S_TEXT/UTF8
    Идентификатор кодека/Информация : UTF-8 Plain Text
    Заголовок : SDH
    Язык : English
    Default : Нет
    Forced : Нет

    Меню
    00:00:00.000 : en:00:00:00.000
    00:05:46.221 : en:00:05:46.221
    00:11:45.163 : en:00:11:45.163
    00:15:51.534 : en:00:15:51.534
    00:19:43.724 : en:00:19:43.724
    00:25:26.817 : en:00:25:26.817
    00:29:42.990 : en:00:29:42.990
    00:35:30.670 : en:00:35:30.670
    00:39:56.644 : en:00:39:56.644
    00:45:14.211 : en:00:45:14.211
    00:49:02.022 : en:00:49:02.022
    00:54:55.918 : en:00:54:55.918
    00:59:51.588 : en:00:59:51.588
    01:04:43.213 : en:01:04:43.213
    01:10:01.948 : en:01:10:01.948
    01:16:55.986 : en:01:16:55.986
    01:23:17.034 : en:01:23:17.034
    01:29:33.994 : en:01:29:33.994
    01:35:54.082 : en:01:35:54.082
    01:39:26.752 : en:01:39:26.752

    Скриншоты для ознакомления:


    Релиз подготовил:
    Размер скачиваемого торрента: 11.14 GB (11959468847 Bytes)

    Анатомия любви / Endless Love (2014) BDRip 1080p | Лицензия скачать через торрент бесплатно
    загрузка...
    Рейтинг →
     (голосов: 1, оценка 3/5, голосовать можно 1 раз )

    Другие торренты по теме:

  • Анатомия любви / Endless Love (2014) BDRip-AVC от MediaClub | D | iTunes скачать через торрент бесплатно
  • Анатомия любви / Endless Love (2014) BDRip 720p от HYPERHD | iTunes торрент скачать бесплатно
  • Анатомия любви / Endless Love (2014) HDRip от Scarabey | D | iTunes Russia скачать через торрент бесплатно
  • Анатомия любви / Endless Love (2014) BDRip 720p от Leonardo and Scarabey | D | iTunes Russia скачать через торрент бесплатно
  • Анатомия любви / Endless Love (2014) BDRip-AVC от Leo.pard | D скачать через торрент бесплатно
  • Анатомия любви / Endless Love (2014) BDRip-AVC от HELLYWOOD | Лицензия скачать через торрент бесплатно
  • Анатомия любви / Endless Love (2014) HDRip от Scarabey | D | Лицензия скачать через торрент бесплатно
  • Анатомия любви / Endless Love (2014) BDRip 720p | Лицензия торрент скачать бесплатно


    • Комментарии (0):

      Информация

      Информация

        Посетители, находящиеся в группе Гости, не могут оставлять комментарии в данной новости.

        ↓ Меню



        ↓ Опрос

        А Вы добавили сайт в закладки?
        Да
        Не


        Top 10 за неделю (Фильмы)