.
Авторизация | Регистрация
Хочешь лучшие торренты? Добавь свой email!
Добавить
» » Уничтожение / Raze - Fight or Die (2013) BDRip-AVC | L2 скачать через торрент бесплатно




    Уничтожение / Raze - Fight or Die (2013) BDRip-AVC | L2 скачать через торрент бесплатно

    Опубликовал: Админ | Дата: 27-02-2015, 11:10 | Просмотров: 198



    Детально о кино
    Русское название: Уничтожение
    Русское название в мировом прокате: Raze - Fight or Die
    Создали в: 2013
    Категория жанра: ужасы, боевик
    Главный режиссер: Джош С. Уоллер
    Актеры: Зои Белл, Рэйчел Николс, Трейси Томс, Шерилин Фенн, Даг Джонс, Брюс Томас, Бэйли Энн Бордерс, Ребекка Маршалл, Эдриэнн Уилкинсон, Али Андерсон

    Сюжет фильма:
    Борись или умри!
    Очнувшись после похищения, Джейми обнаруживает себя в каком-то бетонном бункере - и она здесь не одна. Вместе с ней сюда попали не только её подруга Сабрина, но и полсотни других женщин. Вскоре им сообщают, что они стали участниками кошмарной игры – и теперь должны убивать друг друга голыми руками. А если они откажутся принимать участие в этом аналоге античных гладиаторских боёв – их близких ждёт жестокая смерть...




    Снималось в: США
    Киностудия: Cinipix, Cosmic Toast Studios, Quincy Pictures
    Время просмотра: 01:32:00
    Перевод текста: Любительский двухголосый (DeadSno den904)

    Файл
    Кодек для видео: h.264 (MKV)
    Качество фильма: BDRip-AVC
    Информация о видео: AVC, 1024 x 432, ~1812 kbps
    Информация о звуке: Русский: AC-3, 2 ch, 192 kbps / Английский: AC-3, 6 ch, 448 kbps
    Субтитры: Русский

    Семпл

    Скриншоты для ознакомления
    MI
    Общее
    Уникальный идентификатор : 168348648403719580577546155723716462494 (0x7EA6C532C2870C1E037BA147C20E879E)
    Полное имя : F:Уничтожение Raze - Fight or Die (2013)Raze.2013.BDRip-AVC.mkv
    Формат : Matroska
    Версия формата : Version 2
    Размер файла : 1,61 Гбайт
    Продолжительность : 1 ч. 32 м.
    Режим общего битрейта : Переменный
    Общий поток : 2502 Кбит/сек
    Программа кодирования : Lavf51.12.1
    Библиотека кодирования : Lavf51.12.1

    Видео
    Идентификатор : 1
    Формат : AVC
    Формат/Информация : Advanced Video Codec
    Профиль формата : Baseline@L3.1
    Параметр CABAC формата : Нет
    Параметр ReFrames формата : 1 кадр
    Параметр GOP формата : M=1, N=12
    Идентификатор кодека : V_MPEG4/ISO/AVC
    Продолжительность : 1 ч. 32 м.
    Вид битрейта : Переменный
    Битрейт : 1812 Кбит/сек
    Максимальный битрейт : 2790 Кбит/сек
    Ширина : 1024 пикселя
    Высота : 432 пикселя
    Соотношение сторон : 2,40:1
    Режим частоты кадров : Постоянный
    Частота кадров : 24,000 кадра/сек
    Цветовое пространство : YUV
    Субдискретизация насыщенности : 4:2:0
    Битовая глубина : 8 бит
    Тип развёртки : Прогрессивная
    Бит/(Пиксели*Кадры) : 0.171
    Размер потока : 1,16 Гбайт (72%)
    Язык : English
    Default : Да
    Forced : Нет

    Аудио #1
    Идентификатор : 2
    Формат : AC-3
    Формат/Информация : Audio Coding 3
    Расширение режима : CM (complete main)
    Параметр Endianness формата : Big
    Идентификатор кодека : A_AC3
    Продолжительность : 1 ч. 32 м.
    Вид битрейта : Постоянный
    Битрейт : 192 Кбит/сек
    Каналы : 2 канала
    Расположение каналов : Front: L R
    Частота : 48,0 КГц
    Битовая глубина : 16 бит
    Метод сжатия : С потерями
    Размер потока : 126 Мбайт (8%)
    Язык : Russian
    Default : Да
    Forced : Нет

    Аудио #2
    Идентификатор : 4
    Формат : AC-3
    Формат/Информация : Audio Coding 3
    Расширение режима : CM (complete main)
    Параметр Endianness формата : Big
    Идентификатор кодека : A_AC3
    Продолжительность : 1 ч. 32 м.
    Вид битрейта : Постоянный
    Битрейт : 448 Кбит/сек
    Каналы : 6 каналов
    Расположение каналов : Front: L C R, Side: L R, LFE
    Частота : 48,0 КГц
    Битовая глубина : 16 бит
    Метод сжатия : С потерями
    Размер потока : 295 Мбайт (18%)
    Язык : English
    Default : Да
    Forced : Нет

    Текст
    Идентификатор : 3
    Формат : UTF-8
    Идентификатор кодека : S_TEXT/UTF8
    Идентификатор кодека/Информация : UTF-8 Plain Text
    Язык : Russian
    Default : Да
    Forced : Нет

    Размер скачиваемого торрента: 1.61 GB (1726250925 Bytes)

    Уничтожение / Raze - Fight or Die (2013) BDRip-AVC | L2 скачать через торрент бесплатно
    загрузка...
    Рейтинг →
     (голосов: 1, оценка 5/5, голосовать можно 1 раз )

    Другие торренты по теме:

  • Уничтожение / Raze (2013) WEB-DL 720p | L2 скачать через торрент бесплатно
  • Уничтожение / Raze (2013) HDRip | L2 скачать через торрент бесплатно
  • Годзилла против Мегагируса: Команда на уничтожение / Gojira tai Megagirasu: Ji shometsu sakusen (2000) DVDRip | P2
  • Многократное уничтожение / Overkill / 1987 / АП (Иванов) / DVDRip


    • Комментарии (0):

      Информация

      Информация

        Посетители, находящиеся в группе Гости, не могут оставлять комментарии в данной новости.

        ↓ Меню



        ↓ Опрос

        А Вы добавили сайт в закладки?
        Да
        Не


        Top 10 за месяц (Фильмы)