.
Авторизация | Регистрация
» » ОБЖ (2004-2006) TVRip от DeVil N скачать через торрент бесплатно




    ОБЖ (2004-2006) TVRip от DeVil N скачать через торрент бесплатно

    Опубликовал: Админ | Дата: 27-02-2015, 11:10 | Просмотров: 272



    Детально о кино
    Русское название: ОБЖ 2
    Создали в: 2004-2006
    Категория жанра: Молодёжный, комедия, драма, мелодрама
    Главный режиссер: Ядвига Закржевская
    Актеры: Виталина Гусак, Алексей Щуров, Алина Кушнерова, Алексей Бордюг, Полина Беляева, Анна Маликова, Ренат Рахимов

    Сюжет фильма:
    Каждый день – новая история о дружбе, любви, превратностях школьной и околошкольной жизни современных подростков. Непрофессиональные актеры, сценарии, добытые в гуще реальной школьной жизни, достоверность положений и органичность героев - отличительные черты популярного сериала.



    Снималось в: Россия
    Киностудия: ТРК Петербург
    Время просмотра: 20 х ~ 00:25:00
    Перевод текста: Не требуется

    Файл
    Кодек для видео: DivX
    Качество фильма: TVRip
    Информация о видео: DivX, ~ 1200 Кбит/с, 720x464, 25 кадр/с
    Информация о звуке: Русский, MP3, 48000 Гц, 112 Кбит/с, 2 канала
    Субтитры: Нет

    Семпл

    MediaInfo

    General
    Complete name : OBZ.avi
    Format : AVI
    Format/Info : Audio Video Interleave
    File size : 257 MiB
    Duration : 26mn 3s
    Overall bit rate : 1 382 Kbps
    Writing library : VirtualDub-MPEG2 build 23858/release

    Video
    ID : 0
    Format : MPEG-4 Visual
    Format settings, BVOP : 1
    Format settings, QPel : No
    Format settings, GMC : No warppoints
    Format settings, Matrix : Default (H.263)
    Muxing mode : Packed bitstream
    Codec ID : DX50
    Codec ID/Hint : DivX 5
    Duration : 26mn 3s
    Bit rate : 1 260 Kbps
    Width : 720 pixels
    Height : 464 pixels
    Display aspect ratio : 2.25:1
    Frame rate : 25.000 fps
    Color space : YUV
    Chroma subsampling : 4:2:0
    Bit depth : 8 bits
    Scan type : Progressive
    Compression mode : Lossy
    Bits/(Pixel*Frame) : 0.151
    Stream size : 235 MiB (91%)
    Writing library : DivX 6.8.0 (UTC 2007-12-04)

    Audio
    ID : 1
    Format : MPEG Audio
    Format version : Version 1
    Format profile : Layer 3
    Mode : Joint stereo
    Mode extension : MS Stereo
    Codec ID : 55
    Codec ID/Hint : MP3
    Duration : 26mn 3s
    Bit rate mode : Constant
    Bit rate : 112 Kbps
    Channel(s) : 2 channels
    Sampling rate : 48.0 KHz
    Compression mode : Lossy
    Stream size : 20.9 MiB (8%)
    Alignment : Split accross interleaves
    Interleave, duration : 40 ms (1.00 video frame)
    Interleave, preload duration : 500 ms
    Скриншоты для ознакомления


    Релиз подготовил: DeVil_N
    Залил: ivandubskoj
    Размер скачиваемого торрента: 5.01 GB (5377642490 Bytes)

    ОБЖ (2004-2006) TVRip от DeVil N скачать через торрент бесплатно
    загрузка...
    Рейтинг →
     (голосов: 1, оценка 3/5, голосовать можно 1 раз )

    Другие торренты по теме:

  • Учебные фильмы по предмету ОБЖ: Взрывы (1959) VHSRip от Deadmauvlad торрент скачать бесплатно


    • Комментарии (0):

      Информация

      Информация

        Посетители, находящиеся в группе Гости, не могут оставлять комментарии в данной новости.

        ↓ Меню



        ↓ Опрос

        А Вы добавили сайт в закладки?
        Да
        Не


        Top 10 за неделю (Фильмы)