.
Авторизация | Регистрация
Хочешь лучшие торренты? Добавь свой email!
Добавить
» » Вода и огонь / Su ve Ate / Water and Fire (2013) BDRemux 1080i | L1 торрент скачать бесплатно




    Вода и огонь / Su ve Ate / Water and Fire (2013) BDRemux 1080i | L1 торрент скачать бесплатно

    Опубликовал: Админ | Дата: 27-02-2015, 11:10 | Просмотров: 246



    Вода и огонь / Su ve Ate? / Water and Fire

    Снималось в: Турция
    Категория жанра: драма, мелодрама
    Создали в: 2013
    Время просмотра: 01:48:13
    Тип перевода: Любительское (одноголосое) shachter58
    Главный режиссёр: Озджан Дениз

    Актеры: Озджан Дениз, Ясемин Аллен, Каан Чакыр, Пелин Акил, Юсуф Акгюн, Ирем Джандар, Октай Доган, Бурчин Бирбен, Джем Учан, Барыш Ялчын, Сера Токдемир, Метин Джошкун

    Сюжет фильма: Эта история расскажет о любви Хасмета — человека, который решил пренебречь неписанными законами Востока, — и Ямур — наивной и невинной девушки, которая практически ничего не знает о горьких и суровых реалиях жизни. На пути к их счастью возникает множество препятствий, и, чтобы преодолеть их, влюблённым предстоит приложить максимум усилий.



    Качество фильма: BDRemux 1080i
    Тип видео: MKV
    Информация о видео: MPEG-2 / 24970 kb/s / 1920x1080
    Информация о звуке #1: Russian / AC3 / 192 kb/s (2 ch) - VO shachter58
    Информация о звуке #2: Turkish / DTS-HD MA / 3894 kb/s (6 ch) - Original
    Информация о звуке #3: Turkish / AC3 / 224 kb/s (2 ch) - Descriрtion
    Субтитры: Russian, Turkish, English
    Дополнительно: Сохранены оригинальные чаптеры как на Blu-Ray
    Скачать: Sample

    Скриншоты для ознакомления

    МедиаИнфо
    Общее
    Уникальный идентификатор : 212545219305225118910689304596100244667 (0x9FE6B8619FD1B79395C5690C14D164BB)
    Полное имя : E:Su ve Ate? (Water and Fire) 2013 HDR BDRemux 1080i.mkv
    Формат : Matroska
    Версия формата : Version 4 / Version 2
    Размер файла : 22,3 Гбайт
    Продолжительность : 1 ч. 48 м.
    Режим общего битрейта : Переменный
    Общий поток : 29,4 Мбит/сек
    Название фильма : Su ve Ate? (Water and Fire) 2013 HDR BDRemux 1080i
    Дата кодирования : UTC 2014-06-03 18:33:43
    Программа кодирования : mkvmerge v6.9.1 (;Blue Panther;) 64bit built on Apr 18 2014 18:23:38
    Библиотека кодирования : libebml v1.3.0 + libmatroska v1.4.1
    Attachment : Yes

    Видео
    Идентификатор : 1
    Формат : MPEG Video
    Версия формата : Version 2
    Профиль формата : Main@High
    Параметр BVOP формата : Нет
    Параметр матрицы формата : По умолчанию
    Идентификатор кодека : V_MPEG2
    Идентификатор кодека/Информация : MPEG 1 or 2 Video
    Продолжительность : 1 ч. 48 м.
    Вид битрейта : Переменный
    Максимальный битрейт : 30,0 Мбит/сек
    Ширина : 1920 пикселей
    Высота : 1080 пикселей
    Соотношение сторон : 16:9
    Режим частоты кадров : Постоянный
    Частота кадров : 25,000 кадров/сек
    Стандарт вещания : PAL
    Цветовое пространство : YUV
    Субдискретизация насыщенности : 4:2:0
    Битовая глубина : 8 бит
    Тип развёртки : Чересстрочная
    Порядок развёртки : Верхнее поле первое
    Метод сжатия : С потерями
    Временной код первого кадра : 00:00:00:00
    Оригинал временного кода : Group of pictures t_head
    Заголовок : Su ve Ate? (Water and Fire) 2013 HDR BDRemux 1080i
    Язык : Turkish
    Default : Да
    Forced : Нет
    Основные цвета : BT.709
    Характеристики трансфера : BT.709
    Коэффициенты матрицы : BT.709

    Аудио #1
    Идентификатор : 2
    Формат : AC-3
    Формат/Информация : Audio Coding 3
    Расширение режима : CM (complete main)
    Параметр Endianness формата : Big
    Идентификатор кодека : A_AC3
    Продолжительность : 1 ч. 48 м.
    Вид битрейта : Постоянный
    Битрейт : 192 Кбит/сек
    Каналы : 2 канала
    Расположение каналов : Front: L R
    Частота : 48,0 КГц
    Битовая глубина : 16 бит
    Метод сжатия : С потерями
    Размер потока : 150 Мбайт (1%)
    Заголовок : VO shachter58
    Язык : Russian
    Default : Да
    Forced : Нет

    Аудио #2
    Идентификатор : 3
    Формат : DTS
    Формат/Информация : Digital Theater Systems
    Профиль формата : MA / Core
    Режим : 16
    Параметр Endianness формата : Big
    Идентификатор кодека : A_DTS
    Продолжительность : 1 ч. 48 м.
    Вид битрейта : Переменный
    Битрейт : Неизвестно / 1509 Кбит/сек
    Каналы : 6 каналов
    Расположение каналов : Front: L C R, Side: L R, LFE
    Частота : 48,0 КГц
    Битовая глубина : 24 бит
    Метод сжатия : Без потерь / Lossy
    Заголовок : Original
    Язык : Turkish
    Default : Нет
    Forced : Нет

    Аудио #3
    Идентификатор : 4
    Формат : AC-3
    Формат/Информация : Audio Coding 3
    Расширение режима : CM (complete main)
    Параметр Endianness формата : Big
    Идентификатор кодека : A_AC3
    Продолжительность : 1 ч. 48 м.
    Вид битрейта : Постоянный
    Битрейт : 224 Кбит/сек
    Каналы : 2 канала
    Расположение каналов : Front: L R
    Частота : 48,0 КГц
    Битовая глубина : 16 бит
    Метод сжатия : С потерями
    Размер потока : 174 Мбайт (1%)
    Заголовок : Descriрtion
    Язык : Turkish
    Default : Нет
    Forced : Нет

    Текст #1
    Идентификатор : 5
    Формат : PGS
    Режим смешивания : zlib
    Идентификатор кодека : S_HDMV/PGS
    Идентификатор кодека/Информация : The same subtitle format used on BDs/HD-DVDs
    Заголовок : Full
    Язык : Russian
    Default : Нет
    Forced : Нет

    Текст #2
    Идентификатор : 6
    Формат : PGS
    Режим смешивания : zlib
    Идентификатор кодека : S_HDMV/PGS
    Идентификатор кодека/Информация : The same subtitle format used on BDs/HD-DVDs
    Заголовок : Full
    Язык : Turkish
    Default : Нет
    Forced : Нет

    Текст #3
    Идентификатор : 7
    Формат : UTF-8
    Идентификатор кодека : S_TEXT/UTF8
    Идентификатор кодека/Информация : UTF-8 Plain Text
    Заголовок : Full
    Язык : English
    Default : Нет
    Forced : Нет

    Текст #4
    Идентификатор : 8
    Формат : PGS
    Режим смешивания : zlib
    Идентификатор кодека : S_HDMV/PGS
    Идентификатор кодека/Информация : The same subtitle format used on BDs/HD-DVDs
    Заголовок : Full
    Язык : English
    Default : Нет
    Forced : Нет

    Текст #5
    Идентификатор : 9
    Формат : PGS
    Режим смешивания : zlib
    Идентификатор кодека : S_HDMV/PGS
    Идентификатор кодека/Информация : The same subtitle format used on BDs/HD-DVDs
    Заголовок : Full
    Язык : Dutch
    Default : Нет
    Forced : Нет

    Текст #6
    Идентификатор : 10
    Формат : PGS
    Режим смешивания : zlib
    Идентификатор кодека : S_HDMV/PGS
    Идентификатор кодека/Информация : The same subtitle format used on BDs/HD-DVDs
    Заголовок : Full
    Язык : French
    Default : Нет
    Forced : Нет

    Текст #7
    Идентификатор : 11
    Формат : PGS
    Режим смешивания : zlib
    Идентификатор кодека : S_HDMV/PGS
    Идентификатор кодека/Информация : The same subtitle format used on BDs/HD-DVDs
    Заголовок : Full
    Язык : German
    Default : Нет
    Forced : Нет

    Меню
    00:00:00.000 : tr:Chapter 01
    00:08:55.160 : tr:Chapter 02
    00:19:05.240 : tr:Chapter 03
    00:27:18.840 : tr:Chapter 04
    00:37:38.200 : tr:Chapter 05
    00:46:19.560 : tr:Chapter 06
    00:56:37.120 : tr:Chapter 07
    01:04:28.960 : tr:Chapter 08
    01:11:03.680 : tr:Chapter 09
    01:20:31.720 : tr:Chapter 10
    01:29:07.240 : tr:Chapter 11
    01:37:06.640 : tr:Chapter 12
    01:46:35.920 : tr:Chapter 13

    Размер скачиваемого торрента: 22.33 GB (23972002978 Bytes)

    Вода и огонь / Su ve Ate / Water and Fire (2013) BDRemux 1080i | L1 торрент скачать бесплатно
    загрузка...
    Рейтинг →
     (голосов: 1, оценка 4/5, голосовать можно 1 раз )

    Другие торренты по теме:

  • Вода и огонь / Water and Fire / Su ve Ates (2013) BDRip 720p от CINEMANIA | L1 скачать через торрент бесплатно
  • Вода и огонь / Water and Fire / Su ve Ates (2013) BDRip 1080p от CINEMANIA | L1 скачать через торрент бесплатно
  • Вода и Огонь / Su ve Ates (2013) HDRip | L1 скачать через торрент бесплатно
  • Вода и огонь / Water and Fire (2013) BDRip-AVC | L1 скачать через торрент бесплатно
  • Огонь, вода и ржавые трубы (2017) WEB-DLRip от GeneralFilm
  • Огонь, вода и ржавые трубы (2017) WEB-DLRip-AVC от Files-x
  • Огонь, вода и ржавые трубы (2017) WEB-DLRip от Files-x
  • Порядок действий: Живая и мёртвая вода (2010) SATRip


    • Комментарии (0):

      Информация

      Информация

        Посетители, находящиеся в группе Гости, не могут оставлять комментарии в данной новости.

        ↓ Меню



        ↓ Опрос

        А Вы добавили сайт в закладки?
        Да
        Не


        Top 10 за месяц (Фильмы)